Знахарь / Znachor (Ежи Гоффман) [1981 г., Драма, мелодрама, DVDRemux]

Ответить на тему
 
Автор Сообщение

Egorijj_Alien ®

Стаж: 3 года 4 месяца

Сообщений: 114

Пост 17-Авг-2015 19:07

[Цитировать] 

Информация о фильме:
Название: Знахарь
Оригинальное название: Znachor
Год выпуска: 1981
Страна: Польша
Жанр: Драма, мелодрама
Режиссёр: Ежи Гоффман
В ролях: Ежи Биньчицкий, Анна Дымна, Томаш Стокингер, Бернард Ладыш, Божена Дыкель, Артур Барчиш, Анджей Копичиньский, Влодзимеж Адамский, Аркадиуш Базак, Ежи Блок
Длительность: 02:08:07
Перевод: Профессиональный (Дубляж)
Субтитры: Нет
Описание:
С гениальным хирургом Рафалом Вильчуром происходит трагедия, изменившая всю его жизнь. Уходят жена и дочь, в тот же день он оказывается на улице без денег и документов. Ему приходится пережить несколько лет скитаний и горя.
И все-таки судьба поворачивается к нему лицом. Найдя приют в семье мельника, он спасает его больного сына и становится членом семьи. Молва о «знахаре» расходится по всей округе… А вскоре он встречает и красивую девушку, похожую на жену…


Автор ремукса: Egorijj.Alien
Файл:
Качество: DVDRemux
Формат: MKV
Видео кодек: MPEG2
Аудио кодек: AC3
Видео: 7128 kbps, 720x576, 25 fps
Аудио 1 (русский) : 192 kbps, 2 ch, 48,0 khz
Аудио 2 (польский) : 384 kbps, 6 ch, 48,0 khz-Скриншоты: -

ОтчетМедиаИнфо

General
Unique ID : 173063797362442477144601290563067223582 (0x8232DFFD92BA39388B23854A14CA9E1E)
Complete name : D:\Видео\Знахарь.mkv
Format : Matroska
Format version : Version 4 / Version 2
File size : 7.03 GiB
Duration : 2h 8mn
Overall bit rate mode : Variable
Overall bit rate : 7 861 Kbps
Encoded date : UTC 2015-08-17 13:24:49
Writing application : mkvmerge v7.0.0 ('Where We Going') 64bit built on Jun 9 2014 15:16:27
Writing library : libebml v1.3.0 + libmatroska v1.4.1
DURATION : 02:08:07.008000000
NUMBER_OF_FRAMES : 240219
NUMBER_OF_BYTES : 368976384
_STATISTICS_WRITING_APP : mkvmerge v7.0.0 ('Where We Going') 64bit built on Jun 9 2014 15:16:27
_STATISTICS_WRITING_DATE_UTC : 2015-08-17 13:24:49
_STATISTICS_TAGS : BPS DURATION NUMBER_OF_FRAMES NUMBER_OF_BYTES
Video
ID : 1
Format : MPEG Video
Format version : Version 2
Format profile : [email protected]
Format settings, BVOP : No
Format settings, Matrix : Custom
Codec ID : V_MPEG2
Codec ID/Info : MPEG 1 or 2 Video
Duration : 2h 8mn
Bit rate mode : Variable
Bit rate : 7 128 Kbps
Maximum bit rate : 7 300 Kbps
Width : 720 pixels
Height : 576 pixels
Display aspect ratio : 4:3
Frame rate mode : Constant
Frame rate : 25.000 fps
Standard : PAL
Color space : YUV
Chroma subsampling : 4:2:0
Bit depth : 8 bits
Scan type : Interlaced
Scan order : Bottom Field First
Compression mode : Lossy
Bits/(Pixel*Frame) : 0.688
Time code of first frame : 00:00:00:00
Time code source : Group of pictures header
Stream size : 6.38 GiB (91%)
Default : Yes
Forced : No
Audio #1
ID : 2
Format : AC-3
Format/Info : Audio Coding 3
Mode extension : CM (complete main)
Format settings, Endianness : Big
Codec ID : A_AC3
Duration : 2h 8mn
Bit rate mode : Constant
Bit rate : 192 Kbps
Channel(s) : 2 channels
Channel positions : Front: L R
Sampling rate : 48.0 KHz
Bit depth : 16 bits
Compression mode : Lossy
Stream size : 176 MiB (2%)
Default : Yes
Forced : No
Audio #2
ID : 3
Format : AC-3
Format/Info : Audio Coding 3
Mode extension : CM (complete main)
Format settings, Endianness : Big
Codec ID : A_AC3
Duration : 2h 8mn
Bit rate mode : Constant
Bit rate : 384 Kbps
Channel(s) : 6 channels
Channel positions : Front: L C R, Side: L R, LFE
Sampling rate : 48.0 KHz
Bit depth : 16 bits
Compression mode : Lossy
Stream size : 352 MiB (5%)
Default : No
Forced : No
Скачать

Скачать бесплатно и на максимальной скорости!

Как скачивать? · Что такое торрент? · Рейтинг и ограничения


_________________
Почтальон Печкин
[Профиль]  [ЛС] 

Гость

Стаж: 48 лет

Пост 17-Авг-2015 20:25 (спустя 1 час 17 минут)

[Цитировать] 

Топик был перенесен из форума Фильмы до 2000 года в форум Классика зарубежного кино

alticor
[Профиль]  [ЛС] 

Goryachev71

Стаж: 6 лет 9 месяцев

Сообщений: 6

Пост 18-Авг-2015 17:58 (спустя 21 час)

[Цитировать] 

Скорость вообще будет?! Уже вторые сутки 4,5% висит...((

_________________
[Профиль]  [ЛС] 

Goryachev71

Стаж: 6 лет 9 месяцев

Сообщений: 6

Пост 19-Авг-2015 15:49 (спустя 21 час)

[Цитировать] 

Еще одни сутки пытаюсь выкачать, если раздачи не будет, удалю торрент и файл!

_________________
[Профиль]  [ЛС] 
Показать сообщения:    
Ответить на тему

Текущее время: Сегодня 15:37

Часовой пояс: GMT + 3



Вы не можете начинать темы
Вы не можете отвечать на сообщения
Вы не можете редактировать свои сообщения
Вы не можете удалять свои сообщения
Вы не можете голосовать в опросах
Вы не можете прикреплять файлы к сообщениям
Вы не можете скачивать файлы