Жертвоприношение / Sacrifice / Zhao Shi Gu Er (Чэнь Кайгэ / Chen Kaige) [2010, Китай, драма, исторический, BDRip] DVO + Original (chi) + Sub (rus, eng)

Ответить на тему
 
Автор Сообщение

LoK ®

Стаж: 10 лет

Сообщений: 558

Пост 26-Мар-2011 11:09

[Цитировать] 

Жертвоприношение / Sacrifice / Zhao Shi Gu Er- Страна: Китай
Студия: 21 Century Shengkai Film
Жанр: драма, исторический
Год выпуска: 2010
Продолжительность: 02:07:39-Перевод: Любительский (двухголосый) [источник: пиратский диск DVD9 PAL]-Cубтитры: русский den_shark (исправлены орфографические и синтаксические ошибки), английский
Оригинальная аудиодорожка: Китайский (Mandarin)
Режиссер: Чэнь Кайгэ / Chen Kaige-В ролях: Ман Чук Чиу, Фань Бинбин, Гэ Ю, Hai-Qing, Хуан Сяомин, Уильям Ванг, Ван Сюэци, Чжан Фэнъи...--Описание: Действие происходит в Китае во времена империи Цинь, в исторический период «Весны и осени». Генерал Тхуан Гу убивает Императора и подставляет семью Чжао, с которой у него давняя вражда. Пользуясь этим, он убивает весь род Чжао (более 300 человек). Единственный выживший — младенец Чжао У, которого спасает врач семьи Чжао - Чан Инг (Гэ Ю). Вскоре после этого Тхуан Гу принимает родного сына Чанг Инг за Чжао У и убивает его вместе с женой Чанг Инга.
Чжао У растет в доме Тхуан Гу, который не подозревает о его происхождении и относится к нему как к сыну, а тот, в свою очередь, тоже относится к нему, как к отцу. Однако Чанг Инг вынашивает план мести и однажды рассказывает Чжао У всю правду...-Фильм основан на известной в Китае пьесе «Сирота из рода Чжао».-Бюджет: $10,000,000 (данные IMDB и Кинопоиска)

Качество видео: BDRip источник
Формат видео: AVI
Видео: 720x320 (2.25:1), 23.976 fps, XViD ~1373 kbps avg, 0.249 bit/pixel
Аудио 1: Русский, 48 kHz, MP3, 2 ch, 128.00 kbps Constant
Аудио 2: Китайский, 48 kHz, MP3, 2 ch, 128.00 kbps Constant
Формат субтитров: SoftSub (Srt)

MediaInfo

Общее
Полное имя : Zhertvoprinoshenie.2010.L2.BDRip.1.46GB.avi
Формат : AVI
Формат/Информация : Audio Video Interleave
Размер файла : 1,47 Гбайт
Продолжительность : 2 ч. 7 м.
Общий поток : 1643 Кбит/сек
Программа кодирования : VirtualDubMod 1.5.10.3 (build 2550/release)
Библиотека кодирования : VirtualDubMod build 2550/release
Видео
Идентификатор : 0
Формат : MPEG-4 Visual
Профиль формата : Advanced [email protected]
Параметр BVOP формата : 1
Параметр QPel формата : Нет
Параметр GMC формата : Без точки перехода
Параметр матрицы формата : Выборочная
Идентификатор кодека : XVID
Идентификатор кодека/Подсказка : XviD
Продолжительность : 2 ч. 7 м.
Битрейт : 1373 Кбит/сек
Ширина : 720 пикс.
Высота : 320 пикс.
Соотношение сторон : 2,25:1
Частота кадров : 23,976 кадр/сек
Цветовое пространство : YUV
Подвыборка цветности : 4:2:0
Битовая глубина : 8 бит
Тип развёртки : Прогрессивная
Метод сжатия : С потерями
Бит/(Пиксели*Кадры) : 0.249
Размер потока : 1,22 Гбайт (84%)
Библиотека кодирования : XviD 61
Аудио #1
Идентификатор : 1
Формат : MPEG Audio
Версия формата : Version 1
Профиль формата : Layer 3
Режим : Joint stereo
Расширение режима : MS Stereo
Идентификатор кодека : 55
Идентификатор кодека/Подсказка : MP3
Продолжительность : 2 ч. 7 м.
Вид битрейта : Постоянный
Битрейт : 128 Кбит/сек
Канал(ы) : 2 канала(ов)
Частота : 48,0 КГц
Метод сжатия : С потерями
Размер потока : 117 Мбайт (8%)
Выравнивание : Соединение по промежуткам
Продолжительность промежутка : 42 мс. (1,00 видеокадр)
Время предзагрузки промежутка : 504 ms
Аудио #2
Идентификатор : 2
Формат : MPEG Audio
Версия формата : Version 1
Профиль формата : Layer 3
Режим : Joint stereo
Расширение режима : MS Stereo
Идентификатор кодека : 55
Идентификатор кодека/Подсказка : MP3
Продолжительность : 2 ч. 7 м.
Вид битрейта : Постоянный
Битрейт : 128 Кбит/сек
Канал(ы) : 2 канала(ов)
Частота : 48,0 КГц
Метод сжатия : С потерями
Размер потока : 117 Мбайт (8%)
Выравнивание : Соединение по промежуткам
Продолжительность промежутка : 42 мс. (1,00 видеокадр)
Время предзагрузки промежутка : 504 ms
Скачать

Скачать бесплатно и на максимальной скорости!

Как скачивать? · Что такое торрент? · Рейтинг и ограничения


_________________

Мой твит
[Профиль]  [ЛС] 
Показать сообщения:    
Ответить на тему

Текущее время: Сегодня 22:32

Часовой пояс: GMT + 3



Вы не можете начинать темы
Вы не можете отвечать на сообщения
Вы не можете редактировать свои сообщения
Вы не можете удалять свои сообщения
Вы не можете голосовать в опросах
Вы не можете прикреплять файлы к сообщениям
Вы не можете скачивать файлы