Смертельный звонок / Gosa 2 (Ю Сон Дон / Yu Seon Dong) [2010, Южная Корея, Ужасы, DVDRip]

Ответить на тему
 
Автор Сообщение

LoK ®

Стаж: 9 лет

Сообщений: 558

Пост 27-Мар-2011 01:09

[Цитировать] 

Смертельный звонок / Gosa 2«Нет выхода! Нет исключений! Кто следующий?»--- Страна: Южная Корея
Жанр: Ужасы
Год выпуска: 2010
Продолжительность: 01:25:27--Перевод: Профессиональный (двухголосый закадровый)
Cубтитры: нет
Режиссер: Ю Сун-Донг / Yu Seon-dong--В ролях: Хван Чжон Ым, Чжи Ён, Юн Си Юн--Описание: Группа школьников собирается вместе, чтобы подготовиться к вступительным экзаменам в университет. Но вдруг подростки обнаруживают, что одного из них жестоко убили, и из здания нет выхода. И что единственный шанс выжить — решить загадку, которую им задал таинственный убийца.
Легко ли найти правильный ответ, когда ошибка будет стоить жизни? У каждого есть шанс спастись, но каждый неверный ответ на загадку убийцы будет стоить жизни одного из них.
Успеют ли они разгадать смертельную загадку — и сдать этот страшный экзамен на выживание. Фильм ужасов в лучших традициях азиатского кино.--Качество видео: DVDRip
Формат видео: AVI--Видео: 720x336 (2.14:1), 23.976 fps, XviD build 50 ~2234 kbps avg, 0.39 bit/pixel
Аудио: 48 kHz, AC3 Dolby Digital, 2/0 (L,R) ch, ~192 kbps

MediaInfo

General
Complete name : C:\Users\Раздачи\smertelnii_zvonok.2010.DVDRip.XviD.JRG.avi
Format : AVI
Format/Info : Audio Video Interleave
File size : 1.45 GiB
Duration : 1h 25mn
Overall bit rate : 2 435 Kbps
Writing application : VirtualDubMod 1.5.10.3 | (build 2550/release)
Writing library : VirtualDubMod build 2550/release
Video
ID : 0
Format : MPEG-4 Visual
Format profile : Advanced [email protected]
Format settings, BVOP : Yes
Format settings, QPel : No
Format settings, GMC : No warppoints
Format settings, Matrix : Default (MPEG)
Codec ID : XVID
Codec ID/Hint : XviD
Duration : 1h 25mn
Bit rate : 2 234 Kbps
Width : 720 pixels
Height : 336 pixels
Display aspect ratio : 2.2:1
Frame rate : 23.976 fps
Color space : YUV
Chroma subsampling : 4:2:0
Bit depth : 8 bits
Scan type : Progressive
Compression mode : Lossy
Bits/(Pixel*Frame) : 0.385
Stream size : 1.33 GiB (92%)
Writing library : XviD 1.2.1 (UTC 2008-12-04)
Audio
ID : 1
Format : AC-3
Format/Info : Audio Coding 3
Mode extension : CM (complete main)
Codec ID : 2000
Duration : 1h 25mn
Bit rate mode : Constant
Bit rate : 192 Kbps
Channel(s) : 2 channels
Channel positions : Front: L R
Sampling rate : 48.0 KHz
Bit depth : 16 bits
Compression mode : Lossy
Stream size : 117 MiB (8%)
Alignment : Split accross interleaves
Interleave, duration : 42 ms (1.00 video frame)
Interleave, preload duration : 500 ms
Скачать

Скачать бесплатно и на максимальной скорости!

Как скачивать? · Что такое торрент? · Рейтинг и ограничения


_________________

Мой твит
[Профиль]  [ЛС] 
Показать сообщения:    
Ответить на тему

Текущее время: Сегодня 15:41

Часовой пояс: GMT + 3



Вы не можете начинать темы
Вы не можете отвечать на сообщения
Вы не можете редактировать свои сообщения
Вы не можете удалять свои сообщения
Вы не можете голосовать в опросах
Вы не можете прикреплять файлы к сообщениям
Вы не можете скачивать файлы