Гонка на миллион (Сезон 1) / World's Most Expensive Rides [2010 г., Документальный, научно-популярный, HDTVRip]

Ответить на тему
 
Автор Сообщение

Агапкин ®

Стаж: 8 лет 9 месяцев

Сообщений: 28

Пост 29-Ноя-2010 20:31

[Цитировать] 

Гонка на миллион (Сезон 1) / World's Most Expensive Rides
Год выпуска: 2010
Страна: США, Discovery HD Showcase
Жанр: Документальный, научно-популярный
Продолжительность: 13 х ~ 00:22:02
Перевод: Профессиональный (одноголосый, закадровый)
Описание: Необузданные автомобили, умопомрачительные лодки, сногсшибательные мотоциклы и мощные грузовики. Самые дорогие, изящные транспортные средства планеты в "Гонке на миллион"
Выпуск 01: Spyker C8 Spyder, Freightliner Sportchassis P4XL
Выпуск 02: Bugatti Veyron, Lady Linda, Rolls Royce Phantom Coupe
Выпуск 03: Aston Martin DBS, Outer Limits 46 LTD, Bently Azure
Выпуск 04: Midnight Rider, Mystic C 5000, Shelby Supercars ultimate Aero
Выпуск 05: Big Bear Choppers, Conqvest knight XV, Featherlite Vantare Platinum Plus
Выпуск 06: 1962 Shelby Cobra 289, Bala Atlantica Yacht, HummerZine
Выпуск 07: Bombardier Global Express XRS, Ferrari Stretch Limo, Marathon 43-45 RV
Выпуск 08: Confederate Wraith, Linda Lou, Chrisfian Audigier VIF1 Escalate
Выпуск 09: Ecosse Titanium Series, Island pilot DSE hybrid yacht, Duesenberg SJ The "20 GRAND' car
Выпуск 10: Mercedes-Benz SLR McLaren, Ducati Desmosedici RR, MTI Mercedes PowerBoat
Выпуск 11: Pagani Zonda, Bugatti Dubos Type 51, Porsche Carrera GT
Выпуск 12: Eleanor Mustang, Maserati MC12, Doane Spencer Roadster
Выпуск 13: Ferrari 250 GTO, Sallen S7, Scorpion Hydrogen Supercar.
Качество: HDTVRip
Формат: AVI
Видео кодек: XviD
Аудио кодек: MP3
Видео: XviD, ~ 4514 Кбит/с, 25.000 fps, 1280x720
Аудио: MP3, 2 ch, 320 Кбит/с, 48Khz
Релиз группы:

MediaInfo

General
Complete name : Gonka.na.million.2010.XviD.HDTVRip_AVS\Gonka.na.million_07.serija.2010.XviD.HDTVRip.avi
Format : AVI
Format/Info : Audio Video Interleave
File size : 768 MiB
Duration : 22mn 9s
Overall bit rate : 4 842 Kbps
Writing library : TMPGEnc 4.0 XPress Version. 4.6.2.266
Video
ID : 0
Format : MPEG-4 Visual
Format profile : [email protected]
Format settings, BVOP : Yes
Format settings, QPel : No
Format settings, GMC : No warppoints
Format settings, Matrix : Default (H.263)
Muxing mode : Packed bitstream
Codec ID : XVID
Codec ID/Hint : XviD
Duration : 22mn 9s
Bit rate : 4 514 Kbps
Width : 1 280 pixels
Height : 720 pixels
Display aspect ratio : 16:9
Frame rate : 25.000 fps
Resolution : 24 bits
Colorimetry : 4:2:0
Scan type : Progressive
Bits/(Pixel*Frame) : 0.196
Stream size : 716 MiB (93%)
Writing library : XviD 1.2.1 (UTC 2008-12-04)
Audio
ID : 1
Format : MPEG Audio
Format version : Version 1
Format profile : Layer 3
Format_Settings_Mode : Joint stereo / MS Stereo
Codec ID : 55
Codec ID/Hint : MP3
Duration : 22mn 9s
Bit rate mode : Constant
Bit rate : 320 Kbps
Channel(s) : 2 channels
Sampling rate : 48.0 KHz
Resolution : 16 bits
Stream size : 50.7 MiB (7%)
Alignment : Split accross interleaves
Interleave, duration : 250 ms (6.25 video frames)
Interleave, preload duration : 239 ms
Writing library : LAME3.98.2

Скриншоты

Раздача по оптике ежедневно с 18:00 до 7:00. В выходные дни круглосуточно.
Скачать

Скачать бесплатно и на максимальной скорости!

Как скачивать? · Что такое торрент? · Рейтинг и ограничения

[Профиль]  [ЛС] 

Агапкин ®

Стаж: 8 лет 9 месяцев

Сообщений: 28

Пост 29-Ноя-2010 20:43 (спустя 12 минут)

[Цитировать] 

Пожалуй постер поменяю. Всем пожалуйста.
[Профиль]  [ЛС] 

bender-aleksin

Стаж: 10 лет

Сообщений: 10

Пост 30-Ноя-2010 00:32 (спустя 3 часа)

[Цитировать] 

вау!
[Профиль]  [ЛС] 

DAV179

Стаж: 10 лет

Сообщений: 128

Пост 30-Ноя-2010 14:38 (спустя 14 часов)

[Цитировать] 

Агапкин
Огромное спасибо! Вы не знаете продолжение будет?
[Профиль]  [ЛС] 
Показать сообщения:    
Ответить на тему

Текущее время: Сегодня 05:03

Часовой пояс: GMT + 3



Вы не можете начинать темы
Вы не можете отвечать на сообщения
Вы не можете редактировать свои сообщения
Вы не можете удалять свои сообщения
Вы не можете голосовать в опросах
Вы не можете прикреплять файлы к сообщениям
Вы не можете скачивать файлы