2210: Конец света? / 2210: The Collapse? (Ноел Докстедер) [2010 г., научно-популярный, BDRip720p]

Ответить на тему
 
Автор Сообщение

Externus ®

Стаж: 10 лет

Сообщений: 30

Пост 02-Янв-2011 16:50

[Цитировать] 

2210: Конец света? / 2210: The Collapse?
Год выпуска: 2010
Страна: США
Жанр: научно-популярный
Продолжительность: 01:33:54
Перевод: Профессиональный (одноголосый, закадровый) АРК-ТВ
Субтитры: нет
Режиссер: Ноел Докстедер
Описание: Что бы понять что такое конец света, представим, что он уже наступил. Закат цивилизации мог быть вызван многими причинами. Какая же из них главная? Многие высокоразвитые цивилизации прошлого, прекратили свое существование, а ведь кто во время расцвета Римской империи или цивилизации Майя мог предположить, что они рухнут и все же это произошло. В чем секрет процветания и упадка цивилизаций прошлого? Ученые в 2210 году откапывают руины великой цивилизации. Что смогут они рассказать о причинах гибели того мира, в котором мы сейчас живем?
Качество: BDRip720p
Формат: MKV
Видеокодек: H264
Аудиокодек: AC3
Видео: MPEG-4 AVC, 5041 Кбит/с, 1280x720, 16:9, 25.000 кадр/с
Аудио 1: русский (AC3, 6 ch, 384 Кбит/с, 48 kHz)
Аудио 2: английский (AC3, 6 ch, 384 Кбит/с, 48 kHz)

Отчёт DVDInfo / MediaInfo / BDInfo

General
Complete name : 2210.Konez.sveta.2010.x264.BDRip_Kinozal.TV-HD.mkv
Format : Matroska
File size : 3.89 GiB
Duration : 1h 33mn
Overall bit rate : 5 927 Kbps
Movie name : National Geographic: Kollaps
Encoded date : UTC 2010-12-27 17:37:40
Writing application : mkvmerge v3.2.0 ('Beginnings') built on Feb 12 2010 16:46:17
Writing library : libebml v0.7.9 + libmatroska v0.8.1
Video #1
ID : 1
Format : AVC
Format/Info : Advanced Video Codec
Format profile : [email protected]
Format settings, CABAC : Yes
Format settings, ReFrames : 5 frames
Muxing mode : Container [email protected]
Codec ID : V_MPEG4/ISO/AVC
Duration : 1h 33mn
Bit rate : 5 041 Kbps
Nominal bit rate : 5 157 Kbps
Width : 1 280 pixels
Height : 720 pixels
Display aspect ratio : 16:9
Frame rate : 25.000 fps
Resolution : 24 bits
Colorimetry : 4:2:0
Scan type : Progressive
Bits/(Pixel*Frame) : 0.219
Stream size : 3.31 GiB (85%)
Title : tvp-ngkollaps-720p
Writing library : x264 core 107 r1745 4785e8e
Encoding settings : cabac=1 / ref=5 / deblock=1:0:0 / analyse=0x3:0x133 / me=umh / subme=7 / psy=1 / psy_rd=1.00:0.00 / mixed_ref=1 / me_range=16 / chroma_me=1 / trellis=1 / 8x8dct=1 / cqm=0 / deadzone=21,11 / fast_pskip=0 / chroma_qp_offset=-2 / threads=6 / sliced_threads=0 / nr=0 / decimate=1 / interlaced=0 / constrained_intra=0 / bframes=3 / b_pyramid=2 / b_adapt=1 / b_bias=0 / direct=1 / weightb=1 / open_gop=0 / weightp=2 / keyint=250 / keyint_min=25 / scenecut=40 / intra_refresh=0 / rc_lookahead=40 / rc=2pass / mbtree=1 / bitrate=5157 / ratetol=1.0 / qcomp=0.60 / qpmin=10 / qpmax=51 / qpstep=4 / cplxblur=20.0 / qblur=0.5 / ip_ratio=1.40 / aq=1:0.00
Language : German
Audio #2
ID : 2
Format : AC-3
Format/Info : Audio Coding 3
Codec ID : A_AC3
Duration : 1h 33mn
Bit rate mode : Constant
Bit rate : 384 Kbps
Channel(s) : 6 channels
Channel positions : Front: L C R, Surround: L R, LFE
Sampling rate : 48.0 KHz
Stream size : 258 MiB (6%)
Title : kollaps_by_nyctalus
Language : Russian
Audio #3
ID : 3
Format : AC-3
Format/Info : Audio Coding 3
Codec ID : A_AC3
Duration : 1h 33mn
Bit rate mode : Constant
Bit rate : 384 Kbps
Channel(s) : 6 channels
Channel positions : Front: L C R, Surround: L R, LFE
Sampling rate : 48.0 KHz
Stream size : 258 MiB (6%)
Title : collapse
Language : English
Скачать

Скачать бесплатно и на максимальной скорости!

Как скачивать? · Что такое торрент? · Рейтинг и ограничения

[Профиль]  [ЛС] 

SAMUEL

Стаж: 8 лет 4 месяца

Сообщений: 7

Откуда: Тула пролетарский р-н

Пост 02-Янв-2011 20:44 (спустя 3 часа)

[Цитировать] 

пасибо поболше таких документалок
[Профиль]  [ЛС] 

strka

Стаж: 9 лет 8 месяцев

Сообщений: 7

Откуда: Tula

Пост 07-Янв-2011 16:28 (спустя 4 дня)

[Цитировать] 

Действительно. Вменяемые версии представлены здесь. Буду очень признателен автору, если выложит что-нибудь еще подобного, не обязательно даже именно на эту тему.
[Профиль]  [ЛС] 
Показать сообщения:    
Ответить на тему

Текущее время: Сегодня 09:40

Часовой пояс: GMT + 3



Вы не можете начинать темы
Вы не можете отвечать на сообщения
Вы не можете редактировать свои сообщения
Вы не можете удалять свои сообщения
Вы не можете голосовать в опросах
Вы не можете прикреплять файлы к сообщениям
Вы не можете скачивать файлы