Моря пустыни / Desert Seas [2011 г., Документальный, HDTVRip]

Ответить на тему
 
Автор Сообщение

efgelo ®

Стаж: 5 лет 11 месяцев

Сообщений: 239

Откуда: ефремов

Пост 06-Авг-2013 12:28

[Цитировать] 

Моря пустыни / Desert Seas
Год выпуска: 2011
Страна: С.Ш.А.
Жанр: Документальный
Продолжительность: 00:45:00
Перевод: Профессиональный (одноголосый)
Описание: Существует мир, который доселе был нам не доступен. Два моря, расположенные по бокам Саудовской Аравии. Одно – прекрасное, яркое, сложное, другое – через пустыню, моложе. Оно скрытное, неприступное, иное. В этих двух морях всё не то, что кажется. Фильм расскажет о чудесах, которые встречаются там, где их не ждёшь.
Доп. информация: Показано по каналу - National Geographic Channel
Качество: HDTVRip
Формат: AVI
Видео кодек: XviD
Аудио кодек: MP3
Видео: Xvid 720x400 25fps 3180kbps
Аудио: MP3 48000Hz stereo 128kbps

mediainfo

General
Complete name : Morja.pustyni.2011.avi
Format : AVI
Format/Info : Audio Video Interleave
Format profile : OpenDML
File size : 1.05 GiB
Duration : 44mn 59s
Overall bit rate : 3 325 Kbps
Writing application : XviD4PSP 6.0 / 54.29.105
Video
ID : 0
Format : MPEG-4 Visual
Format profile : Advanced [email protected]
Format settings, BVOP : 1
Format settings, QPel : No
Format settings, GMC : No warppoints
Format settings, Matrix : Default (H.263)
Codec ID : XVID
Codec ID/Hint : XviD
Duration : 44mn 59s
Bit rate : 3 180 Kbps
Width : 720 pixels
Height : 400 pixels
Display aspect ratio : 1.85:1
Frame rate : 25.000 fps
Color space : YUV
Chroma subsampling : 4:2:0
Bit depth : 8 bits
Scan type : Progressive
Compression mode : Lossy
Bits/(Pixel*Frame) : 0.442
Stream size : 1 024 MiB (96%)
Writing library : XviD 64
Audio
ID : 1
Format : MPEG Audio
Format version : Version 1
Format profile : Layer 3
Mode : Joint stereo
Mode extension : MS Stereo
Codec ID : 55
Codec ID/Hint : MP3
Duration : 44mn 59s
Bit rate mode : Constant
Bit rate : 128 Kbps
Channel(s) : 2 channels
Sampling rate : 48.0 KHz
Compression mode : Lossy
Stream size : 41.2 MiB (4%)
Alignment : Aligned on interleaves
Interleave, duration : 24 ms (0.60 video frame)
Writing library : LAME3.99.4

Скриншоты






Скачать

Скачать бесплатно и на максимальной скорости!

Как скачивать? · Что такое торрент? · Рейтинг и ограничения


_________________
Моя мама всегда говорила: «Жизнь как коробка шоколадных конфет: никогда не знаешь, какая начинка тебе попадётся». Форрест Гамп
[Профиль]  [ЛС] 

efgelo ®

Стаж: 5 лет 11 месяцев

Сообщений: 239

Откуда: ефремов

Пост 06-Авг-2013 13:03 (спустя 34 минуты)

[Цитировать] 

А последний скрин вроде нечего получился.

_________________
Моя мама всегда говорила: «Жизнь как коробка шоколадных конфет: никогда не знаешь, какая начинка тебе попадётся». Форрест Гамп
[Профиль]  [ЛС] 
Показать сообщения:    
Ответить на тему

Текущее время: Сегодня 18:56

Часовой пояс: GMT + 3



Вы не можете начинать темы
Вы не можете отвечать на сообщения
Вы не можете редактировать свои сообщения
Вы не можете удалять свои сообщения
Вы не можете голосовать в опросах
Вы не можете прикреплять файлы к сообщениям
Вы не можете скачивать файлы