Старые песни о главном. Новогодний концерт в Кремле [Pop, Музыкальное шоу, SATRip-AVC] [LowRip|mobile]

Ответить на тему
 
Автор Сообщение

Egorijj_Alien ®

Стаж: 2 года 9 месяцев

Сообщений: 114

Пост 19-Дек-2015 21:43

[Цитировать] 

Старые песни о главном
Новогодний концерт в Кремле
Год выпуска: Неизвестно
Выпущено: Первый канал, Россия
Жанр: Pop, Музыкальное шоу
В ролях: Звёзды эстрады
Продолжительность: 02:29:24
Перевод: Не требуется
Субтитры: Нет
Описание: В эфире Первого канала "Новые песни о главном" транслируются с октября 2004 года. Шоу с участием всех лучших звезд российской сцены проходит каждый сезон в Государственном Кремлевском Дворце. Исполнители представляют на суд зрителей свои музыкальные новинки, лучшие из которых звучат в финальном концерте в период новогодних праздников.
Качество: SATRip
Формат: MP4
Видео кодек: AVC
Аудио кодек: AAC
Видео: 360 kbps, 320x192, 25 fps
Аудио: 192 kbps, 2 ch, 48,0 khz

Треклист

01. Валерия / Непоседы - Если снежинка не растает
02. Фабрика - Позвони мне позвони
03. Земляне - Дома у дома
04. Н.Бабкина - Русская песня
05. С.Пьеха - Город детства
06. Л.Долина - Половинка
07. A-Studio - У природы нет плохой погоды
08. Д.Маликов - Кто тебе сказал
09. И.Аллегрова - Нежность
10. Smash - Salut
11. А.Цой - Новогодние подарки
12. Иванушки International - Последняя электричка
13. И.Кобзон - А у нас во дворе
14. Слава - С любовью встретится
15. Ф.Киркоров - Хризантемы
16. Чай вдвоём - Мы вам честно сказать хотим
17. Ю.Михайльчик - Лесной олень
18. Корни - Куда глаза глядят
19. ВИА Гра - Ты ж меня пидманула
20. А.Стоцкая - Оранжевое небо
21. Л.Лещенко - Берёза белая подруга
22. К.Ларина - В горнице моей
23. Лолита - Блюз
24. Д.Билан - Расскажите птицы
25. Н.Подольская - За полчаса до весны
26. А.Розембаум - Вальс Бостон
27. Жасмин - Так не должно быть
28. Н.Кадышева - Виновптая ли я
29. И.Кобзон / Б.Маисеев - Мы с тобой танцуем
30. Ю.Савичева - Поворот
31. В.Леонтьев - Падает снег
32. Д.Гурская - Золушка
33. Любэ - О друге
34. С.Светикова - Гадалка
35. А.Буйнов - Люди встретились
36 С.Ротару - В доме моём

Скриншоты

Ми:

Общее
Полное имя : D:\Видео\[mp4, 320x]\Старые песни о главном. Новогодний концерт в Кремле\Старые песни о главном. Новогодний концерт в Кремле.mp4
Формат : MPEG-4
Профиль формата : Base Media
Идентификатор кодека : isom
Размер файла : 594 Мбайт
Продолжительность : 2 ч. 29 м.
Режим общего битрейта : Переменный
Общий поток : 556 Кбит/сек
Дата кодирования : UTC 2015-12-13 14:23:39
Дата пометки : UTC 2015-12-13 14:23:39
Видео
Идентификатор : 1
Формат : AVC
Формат/Информация : Advanced Video Codec
Профиль формата : [email protected]
Параметр CABAC формата : Да
Параметр ReFrames формата : 8 кадров
Идентификатор кодека : avc1
Идентификатор кодека/Информация : Advanced Video Coding
Продолжительность : 2 ч. 29 м.
Битрейт : 360 Кбит/сек
Максимальный битрейт : 1215 Кбит/сек
Ширина : 320 пикселей
Высота : 192 пикселя
Соотношение сторон : 1,667
Режим частоты кадров : Постоянный
Частота кадров : 25,000 кадров/сек
Цветовое пространство : YUV
Субдискретизация насыщенности : 4:2:0
Битовая глубина : 8 бит
Тип развёртки : Прогрессивная
Бит/(Пиксели*Кадры) : 0.234
Размер потока : 385 Мбайт (65%)
Библиотека кодирования : x264 core 125 r2200 999b753
Настройки программы : cabac=1 / ref=8 / deblock=1:-1:-1 / analyse=0x3:0x133 / me=umh / subme=7 / psy=1 / psy_rd=1.00:0.10 / mixed_ref=1 / me_range=16 / chroma_me=1 / trellis=2 / 8x8dct=1 / cqm=0 / deadzone=21,11 / fast_pskip=0 / chroma_qp_offset=-3 / threads=3 / lookahead_threads=1 / sliced_threads=0 / nr=0 / decimate=1 / interlaced=0 / bluray_compat=0 / constrained_intra=0 / bframes=3 / b_pyramid=2 / b_adapt=2 / b_bias=0 / direct=3 / weightb=1 / open_gop=0 / weightp=2 / keyint=250 / keyint_min=25 / scenecut=40 / intra_refresh=0 / rc_lookahead=50 / rc=2pass / mbtree=1 / bitrate=360 / ratetol=1.0 / qcomp=0.60 / qpmin=0 / qpmax=69 / qpstep=4 / cplxblur=20.0 / qblur=0.5 / ip_ratio=1.40 / aq=1:1.00
Дата кодирования : UTC 2015-12-13 14:23:39
Дата пометки : UTC 2015-12-13 14:24:28
Аудио
Идентификатор : 2
Формат : AAC
Формат/Информация : Advanced Audio Codec
Профиль формата : LC
Идентификатор кодека : 40
Продолжительность : 2 ч. 29 м.
Вид битрейта : Переменный
Битрейт : 192 Кбит/сек
Максимальный битрейт : 199 Кбит/сек
Каналы : 2 канала
Расположение каналов : Front: L R
Частота : 48,0 КГц
Метод сжатия : С потерями
Размер потока : 205 Мбайт (35%)
Дата кодирования : UTC 2015-12-13 14:24:17
Дата пометки : UTC 2015-12-13 14:24:28
Скачать

Скачать бесплатно и на максимальной скорости!

Как скачивать? · Что такое торрент? · Рейтинг и ограничения


_________________
Почтальон Печкин
[Профиль]  [ЛС] 
Показать сообщения:    
Ответить на тему

Текущее время: Сегодня 20:52

Часовой пояс: GMT + 3



Вы не можете начинать темы
Вы не можете отвечать на сообщения
Вы не можете редактировать свои сообщения
Вы не можете удалять свои сообщения
Вы не можете голосовать в опросах
Вы не можете прикреплять файлы к сообщениям
Вы не можете скачивать файлы