Падал прошлогодний снег (Александр Татарский) [1983 г., мультфильм, DVDRip]

Ответить на тему
 
Автор Сообщение

Агапкин ®

Стаж: 8 лет

Сообщений: 28

Пост 27-Сен-2010 20:58

[Цитировать] 

Падал прошлогодний снег
Год выпуска: 1983
Жанр: мультфильм
Продолжительность: 00:19:51
Режиссер: Александр Татарский
В ролях: Станислав Садальский
Описание: Забавные приключения мужика-недотепы, которого жена послала в лес за новогодней елкой.
Доп. информация:
Качество: DVDRip
Формат: AVI
Видео кодек: XviD
Аудио кодек: MPEG Audio
Видео: XviD, 1737 Кбит/с, 640x480
Аудио: MP3, 2 ch, 128 Кбит/с
Релиз группы:

MediaInfo

General
Complete name : Padal.proshlogodnij.sneg.1983.XviD.DVDRip_AVS.avi
Format : AVI
Format/Info : Audio Video Interleave
File size : 266 MiB
Duration : 19mn 51s
Overall bit rate : 1 874 Kbps
Movie name : Падал прошлогодний снег.
Director : agor
Writing application : VirtualDubMod 1.5.10.1 (build 2439/release)
Writing library : VirtualDubMod build 2439/release
Original source form/Name : Cartoon
Video
ID : 0
Format : MPEG-4 Visual
Format profile : [email protected]
Format settings, BVOP : Yes
Format settings, QPel : No
Format settings, GMC : No warppoints
Format settings, Matrix : Default (MPEG)
Codec ID : XVID
Codec ID/Hint : XviD
Duration : 19mn 51s
Bit rate : 1 737 Kbps
Width : 640 pixels
Height : 480 pixels
Display aspect ratio : 4:3
Frame rate : 25.000 fps
Resolution : 24 bits
Colorimetry : 4:2:0
Scan type : Progressive
Bits/(Pixel*Frame) : 0.226
Stream size : 247 MiB (93%)
Writing library : XviD 1.1.2 (UTC 2006-11-01)
Audio
ID : 1
Format : MPEG Audio
Format version : Version 1
Format profile : Layer 3
Format_Settings_Mode : Joint stereo / MS Stereo
Codec ID : 55
Codec ID/Hint : MP3
Duration : 19mn 51s
Bit rate mode : Constant
Bit rate : 128 Kbps
Channel(s) : 2 channels
Sampling rate : 48.0 KHz
Resolution : 16 bits
Stream size : 18.2 MiB (7%)
Alignment : Aligned on interleaves
Interleave, duration : 40 ms (1.00 video frame)
Interleave, preload duration : 504 ms

Скриншоты

Раздача по оптике ежедневно с 18:00 до 7:00. В выходные дни круглосуточно.
Скачать

Скачать бесплатно и на максимальной скорости!

Как скачивать? · Что такое торрент? · Рейтинг и ограничения

[Профиль]  [ЛС] 

PiratSuv

Стаж: 9 лет 7 месяцев

Сообщений: 25

Откуда: Тульская область

Пост 27-Сен-2010 23:49 (спустя 2 часа 50 минут)

[Цитировать] 

Ремастированный что ли ?! .. вроде раньше по телеку он был гораздо темнее ...
[Профиль]  [ЛС] 

Beska

Стаж: 8 лет 5 месяцев

Сообщений: 73

Откуда: Центр

Пост 29-Ноя-2010 12:43 (спустя 2 месяца)

[Цитировать] 

Мультик превосходный, новогоднюю атмосферу и настроение заставляет почувствовать.

_________________
[Профиль]  [ЛС] 

jony00

Стаж: 7 лет 3 месяца

Сообщений: 4

Пост 11-Дек-2010 23:18 (спустя 12 дней)

[Цитировать] 

СПАСИБО!!!!!!!!!!!!!!!!ОЧЕНЬ СПАСИБО!!!!!!!!!!!!
[Профиль]  [ЛС] 
Показать сообщения:    
Ответить на тему

Текущее время: Сегодня 20:35

Часовой пояс: GMT + 3



Вы не можете начинать темы
Вы не можете отвечать на сообщения
Вы не можете редактировать свои сообщения
Вы не можете удалять свои сообщения
Вы не можете голосовать в опросах
Вы не можете прикреплять файлы к сообщениям
Вы не можете скачивать файлы