Алиса в Стране Чудес. Алиса в Зазеркалье (Ефрем Пружанский) [1981-1982 г., мультфильм, DVDRip-AVC] [LowRip|mobile]

Ответить на тему
 
Автор Сообщение

Egorijj_Alien ®

Стаж: 3 года

Сообщений: 114

Пост 05-Апр-2015 11:43

[Цитировать] 

Алиса в Стране Чудес. Алиса в ЗазеркальеГод выпуска: 1981-1982
Студия: Киевнаучфильм
Страна: СССР
Жанр: Мультфильм
Длительность: 01:08:57
Перевод: Не требуется
Субтитры: Нет
Режиссёр: Ефрем Пружанский
В ролях: Марина Неёлова, Георгий Кишко, Вячеслав Невинный, Евгений Паперный, Ростислав Плятт, Александр Ширвиндт, Татьяна Васильева, Рина Зеленая, Николай Караченцов, Лия Ахеджакова, Спартак Мишулин, Михаил Светин, Юрий Волынцев
Описание: Мультипликационные фильмы по мотивам сказки Льюиса Кэрролла "Алиса в Стране Чудес" и "Алиса в Зазеркалье"

Качество: DVDRip-AVC
Формат: MP4
Видео кодек: AVC
Аудио кодек: AAC
Видео: 360 kbps, 480x360 (4:3), 25 fps
Аудио: 128 kbps, 2 ch, 48,0 khz
Рип от: Egorijj.Alien

Скриншоты:

Ми:

General
Complete name : D:\Видео\Рип\Мульт\Alice.mp4
Format : MPEG-4
Format profile : Base Media
Codec ID : isom
File size : 243 MiB
Duration : 1h 8mn
Overall bit rate mode : Variable
Overall bit rate : 493 Kbps
Encoded date : UTC 2015-04-05 07:30:45
Tagged date : UTC 2015-04-05 07:30:45
Video
ID : 1
Format : AVC
Format/Info : Advanced Video Codec
Format profile : [email protected]
Format settings, CABAC : Yes
Format settings, ReFrames : 4 frames
Codec ID : avc1
Codec ID/Info : Advanced Video Coding
Duration : 1h 8mn
Bit rate : 360 Kbps
Maximum bit rate : 1 865 Kbps
Width : 480 pixels
Height : 360 pixels
Display aspect ratio : 4:3
Frame rate mode : Constant
Frame rate : 25.000 fps
Color space : YUV
Chroma subsampling : 4:2:0
Bit depth : 8 bits
Scan type : Progressive
Bits/(Pixel*Frame) : 0.083
Stream size : 178 MiB (73%)
Writing library : x264 core 130 r2273 b3065e6
Encoding settings : cabac=1 / ref=3 / deblock=1:0:0 / analyse=0x3:0x113 / me=hex / subme=7 / psy=1 / psy_rd=1.00:0.00 / mixed_ref=1 / me_range=16 / chroma_me=1 / trellis=1 / 8x8dct=1 / cqm=0 / deadzone=21,11 / fast_pskip=1 / chroma_qp_offset=-2 / threads=3 / lookahead_threads=1 / sliced_threads=0 / nr=0 / decimate=1 / interlaced=0 / bluray_compat=0 / constrained_intra=0 / bframes=3 / b_pyramid=2 / b_adapt=1 / b_bias=0 / direct=1 / weightb=1 / open_gop=0 / weightp=2 / keyint=250 / keyint_min=25 / scenecut=40 / intra_refresh=0 / rc_lookahead=40 / rc=abr / mbtree=1 / bitrate=360 / ratetol=1.0 / qcomp=0.60 / qpmin=0 / qpmax=69 / qpstep=4 / ip_ratio=1.40 / aq=1:1.00
Encoded date : UTC 2015-04-05 07:30:45
Tagged date : UTC 2015-04-05 07:31:09
Audio
ID : 2
Format : AAC
Format/Info : Advanced Audio Codec
Format profile : LC
Codec ID : 40
Duration : 1h 8mn
Bit rate mode : Variable
Bit rate : 128 Kbps
Maximum bit rate : 142 Kbps
Channel(s) : 2 channels
Channel positions : Front: L R
Sampling rate : 48.0 KHz
Compression mode : Lossy
Stream size : 63.1 MiB (26%)
Encoded date : UTC 2015-04-05 07:31:05
Tagged date : UTC 2015-04-05 07:31:09
Скачать

Скачать бесплатно и на максимальной скорости!

Как скачивать? · Что такое торрент? · Рейтинг и ограничения


_________________
Почтальон Печкин
[Профиль]  [ЛС] 
Показать сообщения:    
Ответить на тему

Текущее время: Сегодня 20:36

Часовой пояс: GMT + 3



Вы не можете начинать темы
Вы не можете отвечать на сообщения
Вы не можете редактировать свои сообщения
Вы не можете удалять свои сообщения
Вы не можете голосовать в опросах
Вы не можете прикреплять файлы к сообщениям
Вы не можете скачивать файлы