Приключения поросенка Фунтика (Анатолий Солин) [1988 г., Мультфильм, приключения, DVDRemux]

Ответить на тему
 
Автор Сообщение

Egorijj_Alien ®

Стаж: 3 года

Сообщений: 114

Пост 20-Июн-2015 08:17

[Цитировать] 

Приключения поросенка ФунтикаГод выпуска: 1986-1988
Страна: СССР
Жанр: Мультфильм, приключения
Режиссёр: Анатолий Солин
В ролях: Зоя Пыльнова, Армен Джигарханян, Ирина Муравьёва, Ольга Аросева, Спартак Мишулин, Юрий Волынцев, Анатолий Баранцев, Георгий Бурков, Борис Рунге, Раиса Мухаметшина
Продолжительность: 00:39:28
4 х ~ 00:10:00
Список серий:
1. Неуловимый Фунтик
2. Фунтик и сыщики
3. Фунтик и старушка с усами
4. Фунтик и цирк
Перевод: Не требуется
Субтитры: Нет
Описание: Певая часть: Фунтик сбежал от своей хозяйки, госпожи Беладонны, потому что не хотел обманывать детей. Хозяйка же думала только о наживе и безжалостно преследовала поросенка, который мог приносить ей неплохой доход
Вторая часть: Об отважном и талантливом поросенке Фунтике, сбежавшем от коварной хозяйки универмага «Слезы ребенка» госпожи Белладонны. Фильм второй. О том, как злая и жадная хозяйка универмага «Слеза ребенка» госпожа Белладонна пыталась выкрасть у клоуна Фокуса-Мокуса сбежавшего от нее поросенка Фунтика.
Третья часть: Переодетая в мужской костюм Белладонна пытается похитить Фунтика. Ей помогают тупой начальник полиции Фокстрот и суетливые сыщики Добер и Пинчер.
Четвёртая часть: О приключениях поросенка Фунтика в цирке...

Автор ремукса: Egorijj.Alien
Качество: DVDRemux
Формат: MKV
Видео кодек: MPEG2
Аудио кодек: AC3
Видео: 6940 kbps, 720x576 (4:3), 25 fps
Аудио: AC3, 448 kbps, 1 ch, 48,0 khz

Скриншоты:

Ми:

General
Unique ID : 182574325291471261365154453415602812447 (0x895A8938500EEE53A163720FFD0DF61F)
Complete name : C:\Users\G5030\Desktop\VTS_02_1.mkv
Format : Matroska
Format version : Version 4 / Version 2
File size : 2.08 GiB
Duration : 39mn 28s
Overall bit rate mode : Variable
Overall bit rate : 7 538 Kbps
Encoded date : UTC 2015-06-20 04:03:59
Writing application : mkvmerge v7.9.0 ('Birds') 64bit
Writing library : libebml v1.3.1 + libmatroska v1.4.2
DURATION : 00:39:28.192000000
NUMBER_OF_FRAMES : 74006
NUMBER_OF_BYTES : 132618752
_STATISTICS_WRITING_APP : mkvmerge v7.9.0 ('Birds') 64bit
_STATISTICS_WRITING_DATE_UTC : 2015-06-20 04:03:59
_STATISTICS_TAGS : BPS DURATION NUMBER_OF_FRAMES NUMBER_OF_BYTES
Video
ID : 1
Format : MPEG Video
Format version : Version 2
Format profile : [email protected]
Format settings, BVOP : No
Format settings, Matrix : Default
Codec ID : V_MPEG2
Codec ID/Info : MPEG 1 or 2 Video
Duration : 39mn 28s
Bit rate mode : Variable
Bit rate : 6 940 Kbps
Maximum bit rate : 9 000 Kbps
Width : 720 pixels
Height : 576 pixels
Display aspect ratio : 4:3
Frame rate mode : Constant
Frame rate : 25.000 fps
Standard : PAL
Color space : YUV
Chroma subsampling : 4:2:0
Bit depth : 8 bits
Scan type : Interlaced
Scan order : Bottom Field First
Compression mode : Lossy
Bits/(Pixel*Frame) : 0.669
Time code of first frame : 00:00:00:00
Time code source : Group of pictures header
Stream size : 1.91 GiB (92%)
Default : Yes
Forced : No
Audio
ID : 2
Format : AC-3
Format/Info : Audio Coding 3
Mode extension : CM (complete main)
Format settings, Endianness : Big
Codec ID : A_AC3
Duration : 39mn 28s
Bit rate mode : Constant
Bit rate : 448 Kbps
Channel(s) : 1 channel
Channel positions : Front: C
Sampling rate : 48.0 KHz
Bit depth : 16 bits
Compression mode : Lossy
Delay relative to video : -80ms
Stream size : 126 MiB (6%)
Default : Yes
Forced : No
Скачать

Скачать бесплатно и на максимальной скорости!

Как скачивать? · Что такое торрент? · Рейтинг и ограничения


_________________
Почтальон Печкин
[Профиль]  [ЛС] 

crAzYb0t

Стаж: 7 лет

Сообщений: 31

Откуда: RU

Пост 22-Июн-2015 23:20 (спустя 2 дня 15 часов)

[Цитировать] 

Вот это ништяк ))) Спасиб!

_________________
[Профиль]  [ЛС] 
Показать сообщения:    
Ответить на тему

Текущее время: Сегодня 20:39

Часовой пояс: GMT + 3



Вы не можете начинать темы
Вы не можете отвечать на сообщения
Вы не можете редактировать свои сообщения
Вы не можете удалять свои сообщения
Вы не можете голосовать в опросах
Вы не можете прикреплять файлы к сообщениям
Вы не можете скачивать файлы