Бобик в гостях у Барбоса (Владимир Попов) [1977 г., мультфильм, короткометражка, комедия, DVDRemux]

Ответить на тему
 
Автор Сообщение

Egorijj_Alien ®

Стаж: 3 года

Сообщений: 114

Пост 30-Июн-2015 21:07

[Цитировать] 

Бобик в гостях у БарбосаГод выпуска: 1977
Страна: СССР
Жанр: Мультфильм, короткометражка, комедия
Режиссёр: Владимир Попов
В ролях: Юрий Никулин, Олег Табаков
Продолжительность: 00:08:34
Перевод: Не требуется
Субтитры: Нет
Описание: Рано утром дедушка выгуливает своего домашнего любимца — пса Барбоса. Потом оставляет его одного дома, а сам уходит до вечера, оставив Барбоса «за хозяина». Псу скучно одному, и он приглашает в гости дворнягу Бобика. Перед гостем Барбос начинает строить из себя настоящего хозяина квартиры…

Автор ремукса: Egorijj.Alien
Качество: DVDRemux
Формат: MKV
Видео кодек: MPEG2
Аудио кодек: AC3
Видео: 6000 kbps, 720x576 (4:3), 25 fps
Аудио 1: AC3, 448 kbps, 6 ch, 48,0 khz
Аудио 2: AC3, 224 kbps, 1 ch, 48,0 khz
Аудио 3: DTS, 755 kbps, 6 ch, 48,0 khz

Скриншоты:

Ми:

General
Unique ID : 231954297801678875888012195379817749171 (0xAE80C5D556FC2217B47FD1813FB01AB3)
Complete name : D:\Видео\Двд-ремикс\Бобик в гостях у Барбоса.mkv
Format : Matroska
Format version : Version 4 / Version 2
File size : 566 MiB
Duration : 8mn 34s
Overall bit rate : 9 224 Kbps
Encoded date : UTC 2015-06-30 16:54:21
Writing application : mkvmerge v7.0.0 ('Where We Going') 64bit built on Jun 9 2014 15:16:27
Writing library : libebml v1.3.0 + libmatroska v1.4.1
DURATION : 00:08:34.624000000
NUMBER_OF_FRAMES : 48246
NUMBER_OF_BYTES : 48535476
_STATISTICS_WRITING_APP : mkvmerge v7.0.0 ('Where We Going') 64bit built on Jun 9 2014 15:16:27
_STATISTICS_WRITING_DATE_UTC : 2015-06-30 16:54:21
_STATISTICS_TAGS : BPS DURATION NUMBER_OF_FRAMES NUMBER_OF_BYTES
Video
ID : 1
Format : MPEG Video
Format version : Version 2
Format profile : [email protected]
Format settings, BVOP : No
Format settings, Matrix : Custom
Codec ID : V_MPEG2
Codec ID/Info : MPEG 1 or 2 Video
Duration : 8mn 34s
Bit rate : 7 614 Kbps
Maximum bit rate : 6 000 Kbps
Width : 720 pixels
Height : 576 pixels
Display aspect ratio : 4:3
Frame rate mode : Constant
Frame rate : 25.000 fps
Standard : PAL
Color space : YUV
Chroma subsampling : 4:2:0
Bit depth : 8 bits
Scan type : Interlaced
Scan order : Bottom Field First
Compression mode : Lossy
Bits/(Pixel*Frame) : 0.734
Time code of first frame : 00:00:00:00
Time code source : Group of pictures header
Stream size : 467 MiB (83%)
Default : Yes
Forced : No
Audio #1
ID : 2
Format : AC-3
Format/Info : Audio Coding 3
Mode extension : CM (complete main)
Format settings, Endianness : Big
Codec ID : A_AC3
Duration : 8mn 34s
Bit rate mode : Constant
Bit rate : 448 Kbps
Channel(s) : 6 channels
Channel positions : Front: L C R, Side: L R, LFE
Sampling rate : 48.0 KHz
Bit depth : 16 bits
Compression mode : Lossy
Delay relative to video : 227ms
Stream size : 27.5 MiB (5%)
Default : Yes
Forced : No
Audio #2
ID : 3
Format : AC-3
Format/Info : Audio Coding 3
Mode extension : CM (complete main)
Format settings, Endianness : Big
Codec ID : A_AC3
Duration : 8mn 34s
Bit rate mode : Constant
Bit rate : 224 Kbps
Channel(s) : 1 channel
Channel positions : Front: C
Sampling rate : 48.0 KHz
Bit depth : 16 bits
Compression mode : Lossy
Delay relative to video : 227ms
Stream size : 13.7 MiB (2%)
Default : No
Forced : No
Audio #3
ID : 4
Format : DTS
Format/Info : Digital Theater Systems
Mode : 16
Format settings, Endianness : Big
Codec ID : A_DTS
Duration : 8mn 34s
Bit rate mode : Constant
Bit rate : 755 Kbps
Channel(s) : 6 channels
Channel positions : Front: L C R, Side: L R, LFE
Sampling rate : 48.0 KHz
Bit depth : 24 bits
Compression mode : Lossy
Delay relative to video : 227ms
Stream size : 46.3 MiB (8%)
Default : No
Forced : No
Скачать

Скачать бесплатно и на максимальной скорости!

Как скачивать? · Что такое торрент? · Рейтинг и ограничения


_________________
Почтальон Печкин
[Профиль]  [ЛС] 
Показать сообщения:    
Ответить на тему

Текущее время: Сегодня 18:58

Часовой пояс: GMT + 3



Вы не можете начинать темы
Вы не можете отвечать на сообщения
Вы не можете редактировать свои сообщения
Вы не можете удалять свои сообщения
Вы не можете голосовать в опросах
Вы не можете прикреплять файлы к сообщениям
Вы не можете скачивать файлы