Кот Котофеевич (Галина Баринова) [1981 г., Мультфильм, короткометражка, DVDRemux]

Ответить на тему
 
Автор Сообщение

Egorijj_Alien ®

Стаж: 3 года

Сообщений: 114

Пост 02-Июл-2015 18:40

[Цитировать] 

Кот КотофеевичГод выпуска: 1981
Страна: СССР
Жанр: Мультфильм, короткометражка
Режиссёр: Галина Баринова
В ролях: Николай Караченцов, Валентина Талызина, Зинаида Нарышкина, Рогволд Суховерко, Гарри Бардин, Георгий Бурков, Петр Вишняков
Продолжительность: 00:09:34
Перевод: Не требуется
Субтитры: Нет
Описание: По одноимённой русской народной сказке.
Выгнали Кота из дому из-за непригодности к ловле мышей. Попав в лес, он познакомился с Лисой - Лизаветой Ивановной. Ей представился Тигром. Узнали Заяц, Медведь и Волк о тигре и решили посмотреть на диковинку. Лиса сказала, чтоб принесли подарки под большой дуб, а тогда она и Тигра своего приведёт…

Автор ремукса: Egorijj.Alien
Качество: DVDRemux
Формат: MKV
Видео кодек: MPEG2
Аудио кодек: AC3
Видео: 6253 kbps, 720x576 (4:3), 25 fps
Аудио: AC3, 192 kbps, 2 ch, 48,0 khz

Скриншоты:

Ми:

General
Unique ID : 250085209272122038391675887660352104574 (0xBC24A8C919C60628BB20CA282ED7687E)
Complete name : D:\Видео\Двд-ремикс\Кот Котофеевич.mkv
Format : Matroska
Format version : Version 4 / Version 2
File size : 450 MiB
Duration : 9mn 34s
Overall bit rate : 6 576 Kbps
Encoded date : UTC 2015-07-01 17:07:16
Writing application : mkvmerge v7.0.0 ('Where We Going') 64bit built on Jun 9 2014 15:16:27
Writing library : libebml v1.3.0 + libmatroska v1.4.1
DURATION : 00:09:34.496000000
NUMBER_OF_FRAMES : 17953
NUMBER_OF_BYTES : 13787904
_STATISTICS_WRITING_APP : mkvmerge v7.0.0 ('Where We Going') 64bit built on Jun 9 2014 15:16:27
_STATISTICS_WRITING_DATE_UTC : 2015-07-01 17:07:16
_STATISTICS_TAGS : BPS DURATION NUMBER_OF_FRAMES NUMBER_OF_BYTES
Video
ID : 1
Format : MPEG Video
Format version : Version 2
Format profile : [email protected]
Format settings, BVOP : No
Format settings, Matrix : Custom
Codec ID : V_MPEG2
Codec ID/Info : MPEG 1 or 2 Video
Duration : 9mn 34s
Bit rate : 6 253 Kbps
Maximum bit rate : 6 400 Kbps
Width : 720 pixels
Height : 576 pixels
Display aspect ratio : 4:3
Frame rate mode : Constant
Frame rate : 25.000 fps
Standard : PAL
Color space : YUV
Chroma subsampling : 4:2:0
Bit depth : 8 bits
Scan type : Interlaced
Scan order : Bottom Field First
Compression mode : Lossy
Bits/(Pixel*Frame) : 0.603
Time code of first frame : 00:00:00:00
Time code source : Group of pictures header
Stream size : 428 MiB (95%)
Default : Yes
Forced : No
Audio
ID : 2
Format : AC-3
Format/Info : Audio Coding 3
Mode extension : CM (complete main)
Format settings, Endianness : Big
Codec ID : A_AC3
Duration : 9mn 34s
Bit rate mode : Constant
Bit rate : 192 Kbps
Channel(s) : 2 channels
Channel positions : Front: L R
Sampling rate : 48.0 KHz
Bit depth : 16 bits
Compression mode : Lossy
Stream size : 13.1 MiB (3%)
Default : Yes
Forced : No
Скачать

Скачать бесплатно и на максимальной скорости!

Как скачивать? · Что такое торрент? · Рейтинг и ограничения


_________________
Почтальон Печкин
[Профиль]  [ЛС] 
Показать сообщения:    
Ответить на тему

Текущее время: Сегодня 18:50

Часовой пояс: GMT + 3



Вы не можете начинать темы
Вы не можете отвечать на сообщения
Вы не можете редактировать свои сообщения
Вы не можете удалять свои сообщения
Вы не можете голосовать в опросах
Вы не можете прикреплять файлы к сообщениям
Вы не можете скачивать файлы