Умка. Умка ищет друга (Владимир Попов, Владимир Пекарь) [1969-1970 г., Мультфильм, короткометражка, DVDRemux]

Ответить на тему
 
Автор Сообщение

Egorijj_Alien ®

Стаж: 3 года

Сообщений: 114

Пост 04-Июл-2015 08:37

[Цитировать] 

Умка. Умка ищет другаГод выпуска: 1969-1970
Страна: СССР
Жанр: Мультфильм, короткометражка
Режиссёр: Владимир Попов, Владимир Пекарь
В ролях: Клара Румянова, Маргарита Корабельникова, Варвара Попова, Вера Васильева
Продолжительность: 00:09:41 + 00:09:28
Перевод: Не требуется
Субтитры: Нет
Описание: О дружбе белого медвежонка и мальчика.

Автор ремукса: Egorijj.Alien
Качество: DVDRemux
Формат: MKV
Видео кодек: MPEG2
Аудио кодек: AC3
Видео: ~ 6200 kbps, 720x576 (4:3), 25 fps
Аудио: AC3, 192 kbps, 2 ch, 48,0 khz

Скриншоты:

Ми:

General
Unique ID : 224537318379758120295066741142164932129 (0xA8EC5083BA2E857E9A6C6B3903E10621)
Complete name : D:\Видео\Двд-ремикс\Умка\1 УМКА.mkv
Format : Matroska
Format version : Version 4 / Version 2
File size : 452 MiB
Duration : 9mn 41s
Overall bit rate : 6 517 Kbps
Encoded date : UTC 2015-07-01 17:02:08
Writing application : mkvmerge v7.0.0 ('Where We Going') 64bit built on Jun 9 2014 15:16:27
Writing library : libebml v1.3.0 + libmatroska v1.4.1
DURATION : 00:09:41.248000000
NUMBER_OF_FRAMES : 18164
NUMBER_OF_BYTES : 13949952
_STATISTICS_WRITING_APP : mkvmerge v7.0.0 ('Where We Going') 64bit built on Jun 9 2014 15:16:27
_STATISTICS_WRITING_DATE_UTC : 2015-07-01 17:02:08
_STATISTICS_TAGS : BPS DURATION NUMBER_OF_FRAMES NUMBER_OF_BYTES
Video
ID : 1
Format : MPEG Video
Format version : Version 2
Format profile : [email protected]
Format settings, BVOP : No
Format settings, Matrix : Custom
Codec ID : V_MPEG2
Codec ID/Info : MPEG 1 or 2 Video
Duration : 9mn 41s
Bit rate : 6 196 Kbps
Maximum bit rate : 6 400 Kbps
Width : 720 pixels
Height : 576 pixels
Display aspect ratio : 4:3
Frame rate mode : Constant
Frame rate : 25.000 fps
Standard : PAL
Color space : YUV
Chroma subsampling : 4:2:0
Bit depth : 8 bits
Scan type : Interlaced
Scan order : Bottom Field First
Compression mode : Lossy
Bits/(Pixel*Frame) : 0.598
Time code of first frame : 00:00:00:00
Time code source : Group of pictures header
Stream size : 429 MiB (95%)
Default : Yes
Forced : No
Audio
ID : 2
Format : AC-3
Format/Info : Audio Coding 3
Mode extension : CM (complete main)
Format settings, Endianness : Big
Codec ID : A_AC3
Duration : 9mn 41s
Bit rate mode : Constant
Bit rate : 192 Kbps
Channel(s) : 2 channels
Channel positions : Front: L R
Sampling rate : 48.0 KHz
Bit depth : 16 bits
Compression mode : Lossy
Stream size : 13.3 MiB (3%)
Default : Yes
Forced : No
-
General
Unique ID : 240241649808389832608555035743191825368 (0xB4BCDBD56F25DD8F9B87AF6A9117FBD8)
Complete name : D:\Видео\Двд-ремикс\Умка\2 УМКА ИЩЕТ ДРУГА.mkv
Format : Matroska
Format version : Version 4 / Version 2
File size : 447 MiB
Duration : 9mn 28s
Overall bit rate : 6 593 Kbps
Encoded date : UTC 2015-07-01 17:05:49
Writing application : mkvmerge v7.0.0 ('Where We Going') 64bit built on Jun 9 2014 15:16:27
Writing library : libebml v1.3.0 + libmatroska v1.4.1
DURATION : 00:09:28.896000000
NUMBER_OF_FRAMES : 17778
NUMBER_OF_BYTES : 13653504
_STATISTICS_WRITING_APP : mkvmerge v7.0.0 ('Where We Going') 64bit built on Jun 9 2014 15:16:27
_STATISTICS_WRITING_DATE_UTC : 2015-07-01 17:05:49
_STATISTICS_TAGS : BPS DURATION NUMBER_OF_FRAMES NUMBER_OF_BYTES
Video
ID : 1
Format : MPEG Video
Format version : Version 2
Format profile : [email protected]
Format settings, BVOP : No
Format settings, Matrix : Custom
Codec ID : V_MPEG2
Codec ID/Info : MPEG 1 or 2 Video
Duration : 9mn 28s
Bit rate : 6 270 Kbps
Maximum bit rate : 6 400 Kbps
Width : 720 pixels
Height : 576 pixels
Display aspect ratio : 4:3
Frame rate mode : Constant
Frame rate : 25.000 fps
Standard : PAL
Color space : YUV
Chroma subsampling : 4:2:0
Bit depth : 8 bits
Scan type : Interlaced
Scan order : Bottom Field First
Compression mode : Lossy
Bits/(Pixel*Frame) : 0.605
Time code of first frame : 00:00:00:00
Time code source : Group of pictures header
Stream size : 425 MiB (95%)
Default : Yes
Forced : No
Audio
ID : 2
Format : AC-3
Format/Info : Audio Coding 3
Mode extension : CM (complete main)
Format settings, Endianness : Big
Codec ID : A_AC3
Duration : 9mn 28s
Bit rate mode : Constant
Bit rate : 192 Kbps
Channel(s) : 2 channels
Channel positions : Front: L R
Sampling rate : 48.0 KHz
Bit depth : 16 bits
Compression mode : Lossy
Stream size : 13.0 MiB (3%)
Default : Yes
Forced : No
Скачать

Скачать бесплатно и на максимальной скорости!

Как скачивать? · Что такое торрент? · Рейтинг и ограничения


_________________
Почтальон Печкин
[Профиль]  [ЛС] 
Показать сообщения:    
Ответить на тему

Текущее время: Сегодня 18:57

Часовой пояс: GMT + 3



Вы не можете начинать темы
Вы не можете отвечать на сообщения
Вы не можете редактировать свои сообщения
Вы не можете удалять свои сообщения
Вы не можете голосовать в опросах
Вы не можете прикреплять файлы к сообщениям
Вы не можете скачивать файлы