Тайна третьей планеты (Роман Качанов) [1981 г., Мультфильм, DVDRemux]

Ответить на тему
 
Автор Сообщение

Egorijj_Alien ®

Стаж: 3 года

Сообщений: 114

Пост 04-Июл-2015 12:48

[Цитировать] 

Информация о фильме:
Название: Тайна третьей планеты
Год выпуска: 1981
Страна: СССР
Студия: Союзмультфильм
Жанр: Мультфильм
Режиссёр: Роман Качанов
В ролях: Юрий Андреев, Владимир Дружников, Владимир Кенигсон, Василий Ливанов, Григорий Шпигель, Юрий Волынцев, Игорь Ясулович, Рина Зеленая, Всеволод Ларионов, Ольга Громова
Продолжительность: 00:47:34
Перевод: Не требуется
Субтитры: Нет
Описание:
Приключения девочки Алисы, ее ученого папы и меланхолика капитана Зеленого, а также добродушного чудовища Громозеки и птицы Говоруна, который, как известно, отличается умом и сообразительностью

Автор ремукса: Egorijj.Alien
Файл:
Качество: DVDRemux
Формат: MKV
Видео кодек: MPEG2
Аудио кодек: AC3
Видео: 5938 kbps, 720x576 (4:3), 25 fps
Аудио 1: AC3, 448 kbps, 6 ch, 48,0 khz
Аудио 2: AC3, 448 kbps, 1 ch, 48,0 khz

Скриншоты:

Ми:

General
Unique ID : 247421204912043866796979071689691723322 (0xBA23973AD838A025A43055ECD0E7763A)
Complete name : D:\Видео\Двд-ремикс\Тайна третьей планеты.mkv
Format : Matroska
Format version : Version 4 / Version 2
File size : 2.32 GiB
Duration : 47mn 34s
Overall bit rate mode : Variable
Overall bit rate : 6 973 Kbps
Encoded date : UTC 2015-07-04 07:11:35
Writing application : mkvmerge v7.0.0 ('Where We Going') 64bit built on Jun 9 2014 15:16:27
Writing library : libebml v1.3.0 + libmatroska v1.4.1
DURATION : 00:47:23.584000000
NUMBER_OF_FRAMES : 88862
NUMBER_OF_BYTES : 159240704
_STATISTICS_WRITING_APP : mkvmerge v7.0.0 ('Where We Going') 64bit built on Jun 9 2014 15:16:27
_STATISTICS_WRITING_DATE_UTC : 2015-07-04 07:11:35
_STATISTICS_TAGS : BPS DURATION NUMBER_OF_FRAMES NUMBER_OF_BYTES
Video
ID : 1
Format : MPEG Video
Format version : Version 2
Format profile : Mai[email protected]
Format settings, BVOP : No
Format settings, Matrix : Custom
Codec ID : V_MPEG2
Codec ID/Info : MPEG 1 or 2 Video
Duration : 47mn 34s
Bit rate mode : Variable
Bit rate : 5 938 Kbps
Maximum bit rate : 6 135 Kbps
Width : 720 pixels
Height : 576 pixels
Display aspect ratio : 4:3
Frame rate mode : Constant
Frame rate : 25.000 fps
Standard : PAL
Color space : YUV
Chroma subsampling : 4:2:0
Bit depth : 8 bits
Scan type : Interlaced
Scan order : Top Field First
Compression mode : Lossy
Bits/(Pixel*Frame) : 0.573
Time code of first frame : 00:00:00:01
Time code source : Group of pictures header
Stream size : 1.97 GiB (85%)
Default : Yes
Forced : No
Audio #1
ID : 2
Format : AC-3
Format/Info : Audio Coding 3
Mode extension : CM (complete main)
Format settings, Endianness : Big
Codec ID : A_AC3
Duration : 47mn 34s
Bit rate mode : Constant
Bit rate : 448 Kbps
Channel(s) : 6 channels
Channel positions : Front: L C R, Side: L R, LFE
Sampling rate : 48.0 KHz
Bit depth : 16 bits
Compression mode : Lossy
Delay relative to video : 2s 436ms
Stream size : 152 MiB (6%)
Default : Yes
Forced : No
Audio #2
ID : 3
Format : AC-3
Format/Info : Audio Coding 3
Mode extension : CM (complete main)
Format settings, Endianness : Big
Codec ID : A_AC3
Duration : 47mn 34s
Bit rate mode : Constant
Bit rate : 448 Kbps
Channel(s) : 1 channel
Channel positions : Front: C
Sampling rate : 48.0 KHz
Bit depth : 16 bits
Compression mode : Lossy
Delay relative to video : 2s 436ms
Stream size : 152 MiB (6%)
Default : No
Forced : No
Скачать

Скачать бесплатно и на максимальной скорости!

Как скачивать? · Что такое торрент? · Рейтинг и ограничения


_________________
Почтальон Печкин
[Профиль]  [ЛС] 
Показать сообщения:    
Ответить на тему

Текущее время: Сегодня 20:32

Часовой пояс: GMT + 3



Вы не можете начинать темы
Вы не можете отвечать на сообщения
Вы не можете редактировать свои сообщения
Вы не можете удалять свои сообщения
Вы не можете голосовать в опросах
Вы не можете прикреплять файлы к сообщениям
Вы не можете скачивать файлы