Возвращение блудного попугая 1-3 (Валентин Караваев, Александр Давыдов) [1984 - 1988 г., Мультфильм, комедия, семейный, DVDRemux]

Ответить на тему
 
Автор Сообщение

Egorijj_Alien ®

Стаж: 3 года

Сообщений: 114

Пост 05-Июл-2015 09:20

[Цитировать] 

Возвращение блудного попугаяГод выпуска: 1984 - 1988
Страна: СССР
Жанр: Мультфильм, комедия, семейный
Режиссёр: Валентин Караваев, Александр Давыдов
В ролях: Геннадий Хазанов, Маргарита Корабельникова, Зинаида Нарышкина, Вячеслав Невинный, Наталия Ченчик, Валентин Караваев, Герман Качин
Выпуски: 1-3
Продолжительность: 00:09:43 + 00:09:46 + 00:09:34
Перевод: Не требуется
Субтитры: Нет
Описание: Мультик про попугая Кешу, который убежал от Вовки и решил жить самостоятельно.

Автор ремукса: Egorijj.Alien
Качество: DVDRemux
Формат: MKV
Видео кодек: MPEG2
Аудио кодек: AC3
Видео: ~ 5400 kbps, 720x576 (4:3), 25 fps
Аудио 1: AC3, 448 kbps, 6 ch, 48,0 khz
Аудио 2: AC3, 128 kbps, 1 ch, 48,0 khz

Скриншоты:

Ми:

General
Unique ID : 231765081248971559039312086221228328953 (0xAE5C54BCAED685C78E5B68F60E37C7F9)
Complete name : D:\Видео\Двд-ремикс\Возвращение блудного попугая\1.mkv
Format : Matroska
Format version : Version 4 / Version 2
File size : 418 MiB
Duration : 9mn 43s
Overall bit rate mode : Variable
Overall bit rate : 6 010 Kbps
Encoded date : UTC 2015-07-04 10:50:31
Writing application : mkvmerge v7.0.0 ('Where We Going') 64bit built on Jun 9 2014 15:16:27
Writing library : libebml v1.3.0 + libmatroska v1.4.1
DURATION : 00:09:42.272000000
NUMBER_OF_FRAMES : 18196
NUMBER_OF_BYTES : 9316352
_STATISTICS_WRITING_APP : mkvmerge v7.0.0 ('Where We Going') 64bit built on Jun 9 2014 15:16:27
_STATISTICS_WRITING_DATE_UTC : 2015-07-04 10:50:31
_STATISTICS_TAGS : BPS DURATION NUMBER_OF_FRAMES NUMBER_OF_BYTES
Video
ID : 1
Format : MPEG Video
Format version : Version 2
Format profile : [email protected]
Format settings, BVOP : No
Format settings, Matrix : Custom
Codec ID : V_MPEG2
Codec ID/Info : MPEG 1 or 2 Video
Duration : 9mn 43s
Bit rate mode : Variable
Bit rate : 5 314 Kbps
Maximum bit rate : 5 524 Kbps
Width : 720 pixels
Height : 576 pixels
Display aspect ratio : 4:3
Frame rate mode : Constant
Frame rate : 25.000 fps
Standard : PAL
Color space : YUV
Chroma subsampling : 4:2:0
Bit depth : 8 bits
Scan type : Interlaced
Scan order : Top Field First
Compression mode : Lossy
Bits/(Pixel*Frame) : 0.513
Time code of first frame : 00:00:00:01
Time code source : Group of pictures header
Stream size : 369 MiB (88%)
Default : Yes
Forced : No
Audio #1
ID : 2
Format : AC-3
Format/Info : Audio Coding 3
Mode extension : CM (complete main)
Format settings, Endianness : Big
Codec ID : A_AC3
Duration : 9mn 43s
Bit rate mode : Constant
Bit rate : 448 Kbps
Channel(s) : 6 channels
Channel positions : Front: L C R, Side: L R, LFE
Sampling rate : 48.0 KHz
Bit depth : 16 bits
Compression mode : Lossy
Delay relative to video : 688ms
Stream size : 31.1 MiB (7%)
Default : Yes
Forced : No
Audio #2
ID : 3
Format : AC-3
Format/Info : Audio Coding 3
Mode extension : CM (complete main)
Format settings, Endianness : Big
Codec ID : A_AC3
Duration : 9mn 43s
Bit rate mode : Constant
Bit rate : 128 Kbps
Channel(s) : 1 channel
Channel positions : Front: C
Sampling rate : 48.0 KHz
Bit depth : 16 bits
Compression mode : Lossy
Delay relative to video : 691ms
Stream size : 8.90 MiB (2%)
Default : No
Forced : No
Скачать

Скачать бесплатно и на максимальной скорости!

Как скачивать? · Что такое торрент? · Рейтинг и ограничения


_________________
Почтальон Печкин
[Профиль]  [ЛС] 
Показать сообщения:    
Ответить на тему

Текущее время: Сегодня 18:57

Часовой пояс: GMT + 3



Вы не можете начинать темы
Вы не можете отвечать на сообщения
Вы не можете редактировать свои сообщения
Вы не можете удалять свои сообщения
Вы не можете голосовать в опросах
Вы не можете прикреплять файлы к сообщениям
Вы не можете скачивать файлы