Пес в сапогах (Ефим Гамбург) [1981 г. Мультфильм, короткометражка, мюзикл, DVDRemux]

Ответить на тему
 
Автор Сообщение

Egorijj_Alien ®

Стаж: 3 года

Сообщений: 114

Пост 09-Июл-2015 20:30

[Цитировать] 

Пес в сапогахГод выпуска: 1981
Страна: СССР
Жанр: Мультфильм, короткометражка, мюзикл
Режиссёр: Ефим Гамбург
В ролях: Николай Караченцов, Ирина Муравьёва, Валентин Гафт, Юрий Волынцев, Александр Ширвиндт, Евгений Весник, Лев Дуров, Василий Ливанов, Всеволод Ларионов, Григорий Шпигель
Продолжительность: 00:19:47
Перевод: Не требуется
Субтитры: Нет
Описание: Молодой гасконский пес не успел приехать в Париж, как сразу подрался с кошками кардинала, подружился с лучшими собаками короля и влюбился в симпатичную болонку. Теперь его ждет такое количество проблем, что неизвестно, сможет ли он хотя бы остаться в живых…

Автор ремукса: Egorijj.Alien
Качество: DVDRemux
Формат: MKV
Видео кодек: MPEG2
Аудио кодек: AC3
Видео: 7619 kbps, 720x576 (4:3), 25 fps
Аудио 1: AC3, 448 kbps, 6 ch, 48,0 khz
Аудио 2: AC3, 224 kbps, 1 ch, 48,0 khz
Аудио 3: AC3, 775 kbps, 6 ch, 48,0 khz

Скриншоты:

Ми:

Общее
Уникальный идентификатор : 237132052674263244949299379999399508822 (0xB265F8DBAC2DE5349F423421E2447B56)
Полное имя : D:\Видео\Двд-ремикс\Пес в сапогах.mkv
Формат : Matroska
Версия формата : Version 4 / Version 2
Размер файла : 1,28 Гбайт
Продолжительность : 19 м.
Режим общего битрейта : Переменный
Общий поток : 9229 Кбит/сек
Дата кодирования : UTC 2015-07-04 10:46:04
Программа кодирования : mkvmerge v7.0.0 ('Where We Going') 64bit built on Jun 9 2014 15:16:27
Библиотека кодирования : libebml v1.3.0 + libmatroska v1.4.1
DURATION : 00:19:47.766000000
NUMBER_OF_FRAMES : 111353
NUMBER_OF_BYTES : 112021118
_STATISTICS_WRITING_APP : mkvmerge v7.0.0 ('Where We Going') 64bit built on Jun 9 2014 15:16:27
_STATISTICS_WRITING_DATE_UTC : 2015-07-04 10:46:04
_STATISTICS_TAGS : BPS DURATION NUMBER_OF_FRAMES NUMBER_OF_BYTES
Видео
Идентификатор : 1
Формат : MPEG Video
Версия формата : Version 2
Профиль формата : [email protected]
Параметр BVOP формата : Да
Параметр матрицы формата : Выборочная
Параметр GOP формата : M=3, N=12
Format_Settings_PictureStructure : Frame
Идентификатор кодека : V_MPEG2
Идентификатор кодека/Информация : MPEG 1 or 2 Video
Продолжительность : 19 м.
Вид битрейта : Переменный
Битрейт : 7619 Кбит/сек
Максимальный битрейт : 8000 Кбит/сек
Ширина : 720 пикселей
Высота : 576 пикселей
Соотношение сторон : 4:3
Режим частоты кадров : Постоянный
Частота кадров : 25,000 кадров/сек
Стандарт вещания : PAL
Цветовое пространство : YUV
Субдискретизация насыщенности : 4:2:0
Битовая глубина : 8 бит
Тип развёртки : Чересстрочная
Порядок развёртки : Верхнее поле первое
Метод сжатия : С потерями
Бит/(Пиксели*Кадры) : 0.735
Временной код первого кадра : 00:00:00:00
Оригинал временного кода : Group of pictures header
Размер потока : 1,05 Гбайт (83%)
Default : Да
Forced : Нет
Gop_OpenClosed_FirstFrame : Closed
Аудио #1
Идентификатор : 2
Формат : AC-3
Формат/Информация : Audio Coding 3
Расширение режима : CM (complete main)
Параметр Endianness формата : Big
Идентификатор кодека : A_AC3
Продолжительность : 19 м.
Вид битрейта : Постоянный
Битрейт : 448 Кбит/сек
Каналы : 6 каналов
Расположение каналов : Front: L C R, Side: L R, LFE
Частота : 48,0 КГц
Битовая глубина : 16 бит
Метод сжатия : С потерями
Размер потока : 63,4 Мбайт (5%)
Default : Да
Forced : Нет
Аудио #2
Идентификатор : 3
Формат : AC-3
Формат/Информация : Audio Coding 3
Расширение режима : CM (complete main)
Параметр Endianness формата : Big
Идентификатор кодека : A_AC3
Продолжительность : 19 м.
Вид битрейта : Постоянный
Битрейт : 224 Кбит/сек
Каналы : 1 канал
Расположение каналов : Front: C
Частота : 48,0 КГц
Битовая глубина : 16 бит
Метод сжатия : С потерями
Размер потока : 31,7 Мбайт (2%)
Default : Нет
Forced : Нет
Аудио #3
Идентификатор : 4
Формат : DTS
Формат/Информация : Digital Theater Systems
Режим : 16
Параметр Endianness формата : Big
Идентификатор кодека : A_DTS
Продолжительность : 19 м.
Вид битрейта : Постоянный
Битрейт : 755 Кбит/сек
Каналы : 6 каналов
Расположение каналов : Front: L C R, Side: L R, LFE
Частота : 48,0 КГц
Битовая глубина : 24 бит
Метод сжатия : С потерями
Размер потока : 107 Мбайт (8%)
Default : Нет
Forced : Нет
Скачать

Скачать бесплатно и на максимальной скорости!

Как скачивать? · Что такое торрент? · Рейтинг и ограничения


_________________
Почтальон Печкин
[Профиль]  [ЛС] 
Показать сообщения:    
Ответить на тему

Текущее время: Сегодня 18:57

Часовой пояс: GMT + 3



Вы не можете начинать темы
Вы не можете отвечать на сообщения
Вы не можете редактировать свои сообщения
Вы не можете удалять свои сообщения
Вы не можете голосовать в опросах
Вы не можете прикреплять файлы к сообщениям
Вы не можете скачивать файлы