В порту (Инесса Ковалевская) [1975 г., Мультфильм, короткометражка, DVDRemux]

Ответить на тему
 
Автор Сообщение

Egorijj_Alien ®

Стаж: 3 года

Сообщений: 114

Пост 11-Июл-2015 14:09

[Цитировать] 

В портуГод выпуска: 1975
Страна: СССР
Жанр: Мультфильм, короткометражка
Режиссёр: Инесса Ковалевская
В ролях: Олег Анофриев, Валентина Толкунова
Продолжительность: 00:15:33
Перевод: Не требуется
Субтитры: Нет
Описание: Детский мульти-мюзикл о жизни большого морского порта.

Автор ремукса: Egorijj.Alien
Качество: DVDRemux
Формат: MKV
Видео кодек: MPEG2
Аудио кодек: AC3
Видео: 4890 kbps, 720x576 (4:3), 25 fps
Аудио 1: AC3, 448 kbps, 6 ch, 48,0 khz
Аудио 2: AC3, 224 kbps, 1 ch, 48,0 khz

Скриншоты:

Ми:

Общее
Уникальный идентификатор : 228745915692573303036915288059289807320 (0xAC16DC61E6D202B395776B3B3F9029D8)
Полное имя : D:\Видео\Двд-ремикс\В порту.mkv
Формат : Matroska
Версия формата : Version 4 / Version 2
Размер файла : 632 Мбайт
Продолжительность : 15 м.
Режим общего битрейта : Переменный
Общий поток : 5675 Кбит/сек
Дата кодирования : UTC 2015-07-04 11:57:23
Программа кодирования : mkvmerge v7.0.0 ('Where We Going') 64bit built on Jun 9 2014 15:16:27
Библиотека кодирования : libebml v1.3.0 + libmatroska v1.4.1
DURATION : 00:15:33.280000000
NUMBER_OF_FRAMES : 29165
NUMBER_OF_BYTES : 26131840
_STATISTICS_WRITING_APP : mkvmerge v7.0.0 ('Where We Going') 64bit built on Jun 9 2014 15:16:27
_STATISTICS_WRITING_DATE_UTC : 2015-07-04 11:57:23
_STATISTICS_TAGS : BPS DURATION NUMBER_OF_FRAMES NUMBER_OF_BYTES
Видео
Идентификатор : 1
Формат : MPEG Video
Версия формата : Version 2
Профиль формата : [email protected]
Параметр BVOP формата : Да
Параметр матрицы формата : По умолчанию
Параметр GOP формата : M=3, N=12
Идентификатор кодека : V_MPEG2
Идентификатор кодека/Информация : MPEG 1 or 2 Video
Продолжительность : 15 м.
Вид битрейта : Переменный
Битрейт : 4890 Кбит/сек
Максимальный битрейт : 6000 Кбит/сек
Ширина : 720 пикселей
Высота : 576 пикселей
Соотношение сторон : 4:3
Режим частоты кадров : Постоянный
Частота кадров : 25,000 кадров/сек
Стандарт вещания : PAL
Цветовое пространство : YUV
Субдискретизация насыщенности : 4:2:0
Битовая глубина : 8 бит
Тип развёртки : Прогрессивная
Порядок развёртки : Нижнее поле первое
Метод сжатия : С потерями
Бит/(Пиксели*Кадры) : 0.472
Временной код первого кадра : 00:00:00:00
Оригинал временного кода : Group of pictures header
Размер потока : 544 Мбайт (86%)
Default : Да
Forced : Нет
Gop_OpenClosed_FirstFrame : Closed
Аудио #1
Идентификатор : 2
Формат : AC-3
Формат/Информация : Audio Coding 3
Расширение режима : CM (complete main)
Параметр Endianness формата : Big
Идентификатор кодека : A_AC3
Продолжительность : 15 м.
Вид битрейта : Постоянный
Битрейт : 448 Кбит/сек
Каналы : 6 каналов
Расположение каналов : Front: L C R, Side: L R, LFE
Частота : 48,0 КГц
Битовая глубина : 16 бит
Метод сжатия : С потерями
Размер потока : 49,9 Мбайт (8%)
Default : Да
Forced : Нет
Аудио #2
Идентификатор : 3
Формат : AC-3
Формат/Информация : Audio Coding 3
Расширение режима : CM (complete main)
Параметр Endianness формата : Big
Идентификатор кодека : A_AC3
Продолжительность : 15 м.
Вид битрейта : Постоянный
Битрейт : 224 Кбит/сек
Каналы : 1 канал
Расположение каналов : Front: C
Частота : 48,0 КГц
Битовая глубина : 16 бит
Метод сжатия : С потерями
Размер потока : 24,9 Мбайт (4%)
Default : Нет
Forced : Нет
Скачать

Скачать бесплатно и на максимальной скорости!

Как скачивать? · Что такое торрент? · Рейтинг и ограничения


_________________
Почтальон Печкин
[Профиль]  [ЛС] 
Показать сообщения:    
Ответить на тему

Текущее время: Сегодня 20:37

Часовой пояс: GMT + 3



Вы не можете начинать темы
Вы не можете отвечать на сообщения
Вы не можете редактировать свои сообщения
Вы не можете удалять свои сообщения
Вы не можете голосовать в опросах
Вы не можете прикреплять файлы к сообщениям
Вы не можете скачивать файлы