Новые приключения кота Леопольда / Серии: 13 из 13 (Анатолий Резников, ...) [2015 г., приключения, мультфильм, детский, SATRip]

Ответить на тему
 
Автор Сообщение

womuan78 ®

Стаж: 8 лет 5 месяцев

Сообщений: 450

Откуда: Алексин

Пост 06-Янв-2016 12:55

[Цитировать] 

Новые приключения кота Леопольда
Год выпуска: 2015
Производство:Россия, Теремок ТВ, Русское телевидение
Жанр: приключения, мультфильм, детский
Продолжительность: 13~ 00:12:00 мин серия
Серии:13 из 13 серий
Режиссер: Анатолий Резников
Роли озвучивали: Александр Калягин, Диомид Виноградов, Андрей Бархударов
Персонажи:Кот Леопольд, Мыши... Хвост за Хвост, Глаз за Глаз (Шутка такой)
Описание: Встречайте старого знакомого - самого доброго кота в мире - Леопольда в новых сериях! Как и все, Леопольд собирается встретить Новый год, но маленькие мышата хотят все испортить, потому что считают, что кот слишком счастливый...

Список серий

01. Лавина с гор
02. Сплошные неприятности
03. Всё кувырком
04. Кулинарный рецепт
05. Птицы
06. Ремонт в тылу врага
07. Такси вызывали?
08. Новогодняя ёлка
09. Бурный поток
10. На у реки
11. Под жарким солнцем
12. Вперёд за колбасой и сыром
13. Парк развлечений

Media Info

Общее
Полное имя : E:\_Сериалы\МультСериалы\Novye.Prikljuchenija.Leopolda.2015.XviD.SATRip.by.GeneralFilm\01 серия.avi
Формат : AVI
Формат/Информация : Audio Video Interleave
Размер файла : 148 Мбайт
Продолжительность : 12 м.
Общий поток : 1652 Кбит/сек
Программа кодирования : VirtualDubMod 1.5.10.3 | www.virtualdub-fr.org || (build 2550/release)
Библиотека кодирования : VirtualDubMod build 2550/release
Видео
Идентификатор : 0
Формат : MPEG-4 Visual
Профиль формата : Advanced [email protected]
Параметр BVOP формата : 1
Параметр QPel формата : Нет
Параметр GMC формата : Без точки перехода
Параметр матрицы формата : Выборочная
Идентификатор кодека : XVID
Идентификатор кодека/Подсказка : XviD
Продолжительность : 12 м.
Битрейт : 1450 Кбит/сек
Ширина : 720 пикселей
Высота : 400 пикселей
Соотношение сторон : 16:9
Частота кадров : 25,000 кадров/сек
Цветовое пространство : YUV
Субдискретизация насыщенности : 4:2:0
Битовая глубина : 8 бит
Тип развёртки : Прогрессивная
Метод сжатия : С потерями
Бит/(Пиксели*Кадры) : 0.201
Размер потока : 130 Мбайт (88%)
Библиотека кодирования : XviD 73
Аудио
Идентификатор : 1
Формат : AC-3
Формат/Информация : Audio Coding 3
Расширение режима : CM (complete main)
Параметр Endianness формата : Big
Идентификатор кодека : 2000
Продолжительность : 12 м.
Вид битрейта : Постоянный
Битрейт : 192 Кбит/сек
Каналы : 2 канала
Расположение каналов : Front: L R
Частота : 48,0 КГц
Частота кадров : 31,250 кадров/сек (1536 spf)
Метод сжатия : С потерями
Размер потока : 17,2 Мбайт (12%)
Выравнивание : Разделение по промежуткам
Продолжительность промежутка : 40 мс. (1,00 видеокадр)
Время предзагрузки промежутка : 500 мс.
Качество: SATRip
Формат: AVI
Видео кодек: XviD
Аудио кодек: AC3
Видео: MPEG-4 Visual at 1450 Кбит/сек: 720 x 400 (1.800) at 25.000 fps, 0.28 Бит/Пиксели
Аудио: AC-3 at 192 Кбит/сек: 2 канала, 48,0 КГц

Скриншоты

Скачать

Скачать бесплатно и на максимальной скорости!

Как скачивать? · Что такое торрент? · Рейтинг и ограничения


_________________
В этом мире много психов.
Каждый пятый - это псих.
Говори со мною тихо.
Может я один из них....
[Профиль]  [ЛС] 
Показать сообщения:    
Ответить на тему

Текущее время: Сегодня 15:40

Часовой пояс: GMT + 3



Вы не можете начинать темы
Вы не можете отвечать на сообщения
Вы не можете редактировать свои сообщения
Вы не можете удалять свои сообщения
Вы не можете голосовать в опросах
Вы не можете прикреплять файлы к сообщениям
Вы не можете скачивать файлы