Зеленый Фонарь: Первый полет / Green Lantern: First Flight (Лоурен Монтгомери / Lauren Montgomery) [2009 г., фантастика, боевик, приключения, мультфильм, BDRip]

Ответить на тему
 
Автор Сообщение

sluggish ®

Стаж: 8 лет 8 месяцев

Сообщений: 17

Откуда: Мир

Пост 10-Фев-2011 08:55

[Цитировать] 

Зеленый Фонарь: Первый полет / Green Lantern: First Flight
Год выпуска: 2009
Страна: США | DC Comics, Warner Bros. Animation
Жанр: фантастика, боевик,приключения, мультфильм
Продолжительность: 01:17:35
Перевод: Любительский (многоголосый, закадровый) SkyeFilmTV + Оригинальная дорожка
Режиссер: Лоурен Монтгомери / Lauren Montgomery
Роли озвучивали: Кристофер Мелони, Виктор Гарбер, Тришиа Хелфер, Майкл Мэдсен, Джон Ларрокетт, Кертвуд Смит, Ларри Дрэйк, Уильям Шэллерт, Малачи Трон, Оливия д’Або
Описание: Летчик-испытатель Хэл Джордан находит себе работу в качестве нового члена межгалактической полиции, Зеленый Фонарь — одна из самых элитных подразделений героев. Эти герои патрулируют вселенную, чтобы охранять мир и вершить правосудие над злодеями. Неуверенные в новичке, «Опекуны» назначают Хэлу задания для его обучения. Однако сами «Опекуны» не подозревают, что Синестро планирует свергнуть их и создать новую организацию, которой он будет управлять. Это — сражение силы и могущества, должно доказать, что Хэл Джордан способен свергнуть мятежника и спасти Зеленый цвет «Корпуса Фонаря»
Качество: BDRip
Формат: AVI
Видео кодек: XviD
Аудио кодек: AC3
Видео: 720x400 (1.80:1) at 23.976 fps, XviD build 50 ~2028 kbps avg, 0.29 bit/pixel
Аудио: 48 kHz, AC3 Dolby Digital 2.0 @ 192 kbps (2 channels) |Russian|
Аудио 2: 48 kHz, AC3 Dolby Digital 5.1 @ 448 kbps (6 channels) |English|

Отчёт DVDInfo / MediaInfo / BDInfo

General
Format : AVI
Format/Info : Audio Video Interleave
File size : 1.45 GiB
Duration : 1h 17mn
Overall bit rate : 2 684 Kbps
Movie name : Зеленый Фонарь: Первый полет / Green Lantern: First Flight (2009)
Director : DaniLch
Genre : Sci-Fi/Action/Fantasy/Adventure/
Writing application : VirtualDubMod 1.5.10.2 (build 2542/release)
Video
ID : 0
Format : MPEG-4 Visual
Format profile : Advanced [email protected]
Format settings, BVOP : Yes
Format settings, QPel : No
Format settings, GMC : No warppoints
Format settings, Matrix : Default (MPEG)
Codec ID : XVID
Codec ID/Hint : XviD
Duration : 1h 17mn
Bit rate : 2 029 Kbps
Width : 720 pixels
Height : 400 pixels
Display aspect ratio : 16:9
Frame rate : 23.976 fps
Color space : YUV
Chroma subsampling : 4:2:0
Bit depth : 8 bits
Scan type : Progressive
Bits/(Pixel*Frame) : 0.294
Stream size : 1.10 GiB (76%)
Writing library : XviD 1.2.1 (UTC 2008-12-04)
Audio #1
ID : 1
Format : AC-3
Format/Info : Audio Coding 3
Mode extension : CM (complete main)
Codec ID : 2000
Duration : 1h 17mn
Bit rate mode : Constant
Bit rate : 192 Kbps
Channel(s) : 2 channels
Channel positions : Front: L R
Sampling rate : 48.0 KHz
Bit depth : 16 bits
Stream size : 107 MiB (7%)
Alignment : Split accross interleaves
Interleave, duration : 42 ms (1.00 video frame)
Interleave, preload duration : 500 ms
Audio #2
ID : 2
Format : AC-3
Format/Info : Audio Coding 3
Mode extension : CM (complete main)
Codec ID : 2000
Duration : 1h 17mn
Bit rate mode : Constant
Bit rate : 448 Kbps
Channel(s) : 6 channels
Channel positions : Front: L C R, Side: L R, LFE
Sampling rate : 48.0 KHz
Bit depth : 16 bits
Stream size : 249 MiB (17%)
Alignment : Split accross interleaves
Interleave, duration : 42 ms (1.00 video frame)
Interleave, preload duration : 500 ms
--с раздачи ушёл--
Скачать

Скачать бесплатно и на максимальной скорости!

Как скачивать? · Что такое торрент? · Рейтинг и ограничения


_________________
В каждом из нас спит гений, но с каждым днем все крепче и крепче.


Последний раз редактировалось: sluggish (2011-05-16 00:56), всего редактировалось 1 раз
[Профиль]  [ЛС] 

reanimatoring

Стаж: 8 лет 1 месяц

Сообщений: 214

Откуда: Москва

Пост 10-Фев-2011 10:46 (спустя 1 час 51 минута)

[Цитировать] 

Интересная серия ab

_________________
http://vk.com/id14792832
Современная ОС - 4 200р.
Стильный офисный комплект - 3 700р.
Доступ в rupier.com - бесценно.
Есть вещи, которые нельзя купить. И с их помощью можно не покупать все остальное.
[Профиль]  [ЛС] 

sluggish ®

Стаж: 8 лет 8 месяцев

Сообщений: 17

Откуда: Мир

Пост 10-Фев-2011 10:55 (спустя 8 минут)

[Цитировать] 

reanimatoring серия bw эт сериал ?

_________________
В каждом из нас спит гений, но с каждым днем все крепче и крепче.
[Профиль]  [ЛС] 

reanimatoring

Стаж: 8 лет 1 месяц

Сообщений: 214

Откуда: Москва

Пост 10-Фев-2011 10:58 (спустя 3 минуты)

[Цитировать] 

sluggish нет, ну есть же еще мульты про фонаря ... это не единственный ...

_________________
http://vk.com/id14792832
Современная ОС - 4 200р.
Стильный офисный комплект - 3 700р.
Доступ в rupier.com - бесценно.
Есть вещи, которые нельзя купить. И с их помощью можно не покупать все остальное.
[Профиль]  [ЛС] 

sluggish ®

Стаж: 8 лет 8 месяцев

Сообщений: 17

Откуда: Мир

Пост 10-Фев-2011 11:02 (спустя 3 минуты)

[Цитировать] 

reanimatoring я просто не знал ag но по названию догадывался но не гуглил честн

_________________
В каждом из нас спит гений, но с каждым днем все крепче и крепче.
[Профиль]  [ЛС] 
Показать сообщения:    
Ответить на тему

Текущее время: Сегодня 05:03

Часовой пояс: GMT + 3



Вы не можете начинать темы
Вы не можете отвечать на сообщения
Вы не можете редактировать свои сообщения
Вы не можете удалять свои сообщения
Вы не можете голосовать в опросах
Вы не можете прикреплять файлы к сообщениям
Вы не можете скачивать файлы