Смелый большой панда / Little Big Panda (Грег Манваринг / Greg Manwaring) [2011, Мультфильм, семейный, DVDRip]

Ответить на тему
 
Автор Сообщение

LoK ®

Стаж: 9 лет 6 месяцев

Сообщений: 558

Пост 30-Май-2011 23:35

[Цитировать] 

Смелый большой панда / Little Big Panda- Страна: Германия, Китай
Жанр: Мультфильм, семейный
Продолжительность: 01:27:25
Год выпуска: 2011
Перевод: Профессиональный (дублированный)
Русские субтитры: нет
Режиссёр: Грег Манваринг / Greg Manwaring
Роли озвучивали:
Александра Остроухова
Андрей Чижов
Вероника Саркисова
Дмитрий Курта
Описание: Человек против дикой природы! Жизнь обитателей бамбуковой рощи под угрозой. Остановить армию двуногих варваров никому не под силу... Кроме отважного, ловкого, неуязвимого и остроумного Панды. Он окажется в самом сердце веселых приключений и опасных испытаний, чтобы спасти сородичей и стать Царем зверей!-Семпл: http://multi-up.com/499458
Качество: DVDRip
Формат: AVI
Видео: 704x400 (1.76:1), 25 fps, XviD build 50 ~1783 kbps avg, 0.25 bit/pixel
Аудио: 48 kHz, AC3 Dolby Digital, 3/2 (L,C,R,l,r) + LFE ch, ~448 kbps
Субтитры: нет

Подробные технические данные

General
Complete name : D:\Smeliy.bolshoy.panda.2011.XviD.DVDRip.Kinozal.TV.avi
Format : AVI
Format/Info : Audio Video Interleave
File size : 1.37 GiB
Duration : 1h 27mn
Overall bit rate : 2 242 Kbps
Writing application : VirtualDubMod 1.5.10.2 (build 2540/release)
Writing library : VirtualDubMod build 2540/release
Video
ID : 0
Format : MPEG-4 Visual
Format profile : Advanced [email protected]
Format settings, BVOP : Yes
Format settings, QPel : No
Format settings, GMC : No warppoints
Format settings, Matrix : Default (MPEG)
Codec ID : XVID
Codec ID/Hint : XviD
Duration : 1h 27mn
Bit rate : 1 784 Kbps
Width : 704 pixels
Height : 400 pixels
Display aspect ratio : 16:9
Frame rate : 25.000 fps
Resolution : 8 bits
Colorimetry : 4:2:0
Scan type : Progressive
Bits/(Pixel*Frame) : 0.253
Stream size : 1.09 GiB (80%)
Writing library : XviD 1.2.1 (UTC 2008-12-04)
Audio
ID : 1
Format : AC-3
Format/Info : Audio Coding 3
Codec ID : 2000
Duration : 1h 27mn
Bit rate mode : Constant
Bit rate : 448 Kbps
Channel(s) : 6 channels
Channel positions : Front: L C R, Surround: L R, LFE
Sampling rate : 48.0 KHz
Stream size : 280 MiB (20%)
Alignment : Aligned on interleaves
Interleave, duration : 40 ms (1.00 video frame)
Interleave, preload duration : 512 ms

Скриншоты



Скачать

Скачать бесплатно и на максимальной скорости!

Как скачивать? · Что такое торрент? · Рейтинг и ограничения


_________________

Мой твит
[Профиль]  [ЛС] 
Показать сообщения:    
Ответить на тему

Текущее время: Сегодня 01:08

Часовой пояс: GMT + 3



Вы не можете начинать темы
Вы не можете отвечать на сообщения
Вы не можете редактировать свои сообщения
Вы не можете удалять свои сообщения
Вы не можете голосовать в опросах
Вы не можете прикреплять файлы к сообщениям
Вы не можете скачивать файлы