Даша - путешественница (97 серий) / Dora the Explorer (Chris Gifford, George S. Chialtas, Gary Conrad, Sherie Pollack, Arnie Wong) [2000 г., детский, обучающий, SATRip]

Ответить на тему
 
Автор Сообщение

Amens71 ®

Стаж: 7 лет 3 месяца

Сообщений: 104

Откуда: Китайка

Пост 16-Сен-2011 03:33

[Цитировать] 

Даша - путешественница (97 серий) / Dora the Explorer
Год выпуска: 2000
Страна: США
Жанр: детский, обучающий
Продолжительность: 97 серий по 23-24 минуты
Режиссер: Chris Gifford, George S. Chialtas, Gary Conrad, Sherie Pollack, Arnie Wong
Описание: Симпатичный мультик про Дашу (в оригинале - Дору), обезьянку Башмачка, кузена Даши - Диего (про него есть отдельный сериал "Go, Diego, Go!"), Лисенка Жулика и прочих забавных персонажей.
Пилотная серия вышла в 1999году, регулярное вещание началось в 2000.
Мультик из разряда"Посадил папа маленького ребёнка утром перед телевизором и забыл про него до вечера"

Список серий

:
sXXeXX.dasha_перелезть через все перекладины.avi
sXXeXX.dasha61_все дырявое.avi
s01e01.dasha_большой красный ципленок.avi
s01e02.dasha_маленька синяя птичка.avi
s01e03.dasha_тихо-голосно.avi
s01e04.dasha_пляж.avi
s01e05.dasha_фургон з мороженым.avi
s01e06.dasha_поезд.avi
s01e07.Dora.the.Explorer.Treasure Island - Сокровища пиратов_.avi
s01e08.dasha_поросята.avi
s01e09.dasha_потеряли башмачок_.avi
s01e10.dasha_черника жулика_.avi
s01e11.dasha_3 желание_.avi
s01e12.dasha_корзинка бабушки.avi
s01e13.dasha_день рождения башмачка.avi
s01e14.dasha_клейкая лента_.avi
s01e15.dasha_синий мяч.avi
s01e16.dasha_рюкзак.avi
s01e17.dasha_ красная рыбка.avi
s01e18.dasha_жучок.avi
s01e19.dasha_упала звездочка_.avi
s01e20.dasha_спасти принца.avi
s01e21.dasha_квакша.avi
s01e22.dasha_шоколадное дерево.avi
s01e23.dasha_розбить колдовство мага.avi
s01e24.dasha_флейта_.avi
s01e25.dasha_вечеринка жуков_.avi
s01e26.dasha_конкурс загадок_.avi
s01e27.dasha_пропавшие игрушки_.avi
s02e02.dasha_прогнали тучу_.avi
s02e03.dasha_пожарная машина башмачка.avi
s02e04.dasha_волшебный посох_.avi
s02e05.dasha_мозаика_.avi
s02e06.dasha_спасли пищалку.avi
s02e07.dasha пожарная машина_.avi
s02e08.dasha_украли карту.avi
s02e09.dasha_мамин день.avi
s02e10.dasha_футбол з динозаврами.avi
s02e11.dasha_рождество.avi
s02e12.dasha_болезнь борьки_.avi
s02e13.dasha_ковбои_.avi
s02e14.dasha_цирк_.avi
s02e15.dasha_карнавал_.avi
s02e16.dasha_ларчик_щастья_.avi
s02e17.dasha_супер-карта_.avi
s02e18.dasha_письмо жулику.avi
s02e19.Dora.the.Explorer.Yes We Can!.avi
s02e20.dasha_спрятали музыкальные инструменты_.avi
s02e21.dasha_найти друзей_.avi
s02e22.dasha_фотографии.avi
s02e23.dasha_рождественские яйца.avi
s02e24.dasha_шпионы.avi
s02e25.dasha_пирамиды.avi
s02e26.dasha_день рождения Жулика.avi
s02e27.dasha_утенок_.avi
s03e01.dasha замок на тучах.avi
s03e02.dasha_машины башмачка.avi
s03e03.dasha_про робота.avi
s03e04.dasha_Борька-картошка.avi
s03e05.dasha_парк зверей_.avi
s03e06.dasha_освободить собак_.avi
s03e07.dasha_корона принца.avi
s03e08.dasha_динозавры_.avi
s03e09.dasha_пингвини.avi
s03e10.dasha_сказка про трех поросят.avi
s03e11.dasha_бинокль_.avi
s03e13.dasha_бейсбол.avi
s03e14.dasha_особенный день башмачка.avi
s03e15.dasha_Хеллоуин_.avi
s03e16.Dora.the.Explorer.Dora Saves the Game_.avi
s03e17.dasha_будили солнце.avi
s03e18.dasha_инопланетяни.avi
s03e19.dasha_найти_динозаврика.avi
s03e2.2dasha_алфавит_.avi
s03e20.Dora.the.Explorer.The Super Silly Fiesta.avi
s03e21.dasha_день друзей_.avi
s03e23.dasha_сокровища.avi
s04e02.dasha_звездная вечеринка.avi
s04e03.Dora.the.Explorer.The Shy Rainbow_.avi
s04e04.Dora.the.Explorer.Swiper the Explorer_.avi
s04e05.dasha_звездочка на горе.avi
s04e06.Dora.the.Explorer.Big Sister Dora_.avi
s04e07.Dora.the.Explorer.Super Babies_.avi
s04e08.Dora.the.Explorer.Catch the Babies_.avi
s04e09.Dora.the.Explorer.Dora’s Got a Puppy_.avi
s04e11.dasha_играли в шпионов.avi
s04e12.Dora.the.Explorer.Dora and Diego to the Rescue_.avi
s04e13.dasha_найти корону.avi
s04e14.dasha_овечка.avi
s04e15.Dora.the.Explorer.The Mixed-Up Seasons_.avi
s04e17.dasha_спасали Диего.avi
s04e19.Dora.the.Explorer.Dora’s First Trip_.avi
s04e20.dasha_спасли медвежонка.avi
s04e21.Dora.the.Explorer.Boots to the Rescue_.avi
s04e23.Dora.the.Explorer.Baby Crab_.avi
s04e24.dasha_учительница музики.avi
s04e27.Dora.the.Explorer.We’re the Best Team Ever_.avi
Качество: SATRip
Формат: AVI
Видео кодек: DivX
Аудио кодек: MP3
Видео: DivX преобладает 640x480, ~1500 ~1700 кб/с
Аудио: MP3, 128 кб/с, Mono

Отчёт DVDInfo / MediaInfo / BDInfo

F:\Êèíî\Äàøà 95 ñåðèé\s01e01.dasha_áîëüøîé êðàñíûé öèïëåíîê.avi
General
Complete name : F:\Êèíî\Äàøà 95 ñåðèé\s01e01.dasha_áîëüøîé êðàñíûé öèïëåíîê.avi
Format : AVI
Format/Info : Audio Video Interleave
File size : 258 MiB
Duration : 23mn 15s
Overall bit rate : 1 551 Kbps
Video
Format : div3
Codec ID : div3
Duration : 23mn 15s
Bit rate : 1 414 Kbps
Width : 640 pixels
Height : 480 pixels
Display aspect ratio : 4:3
Frame rate : 25.000 fps
Resolution : 24 bits
Bits/(Pixel*Frame) : 0.184
Stream size : 235 MiB (91%)
Audio #1
ID : 1
Format : MPEG Audio
Format version : Version 1
Format profile : Layer 3
Codec ID : 55
Codec ID/Hint : MP3
Duration : 23mn 15s
Bit rate mode : Constant
Bit rate : 128 Kbps
Channel(s) : 1 channel
Sampling rate : 48.0 KHz
Resolution : 16 bits
Stream size : 21.3 MiB (8%)
Alignment : Aligned on interleaves
Interleave, duration : 40 ms (1.00 video frame)

Скриншоты



Скачать

Скачать бесплатно и на максимальной скорости!

Как скачивать? · Что такое торрент? · Рейтинг и ограничения

[Профиль]  [ЛС] 
Показать сообщения:    
Ответить на тему

Текущее время: Сегодня 12:00

Часовой пояс: GMT + 3



Вы не можете начинать темы
Вы не можете отвечать на сообщения
Вы не можете редактировать свои сообщения
Вы не можете удалять свои сообщения
Вы не можете голосовать в опросах
Вы не можете прикреплять файлы к сообщениям
Вы не можете скачивать файлы