Grazie, Presidente! 3D / Спасибо, Президент! 3D (D'Salvo, Magmafilm) [2012 г., Feature, Straight, 3D, Half SideBySide, 1080p, BDRip] Горизонтальная анаморфная стереопара

Ответить на тему
 
Автор Сообщение

Ruzel ®

Стаж: 8 лет 2 месяца

Сообщений: 1671

Откуда: Московская обл

Пост 11-Янв-2013 19:50

[Цитировать] 

Grazie, Presidente! 3D / Спасибо, Президент! 3D- Год производства: 2012 г.
Страна: Germany
Жанр: Feature, Straight, 3D
Продолжительность: 01:58:33
Режиссер: D'Salvo
Студия: Magmafilm-Язык: Немецкий
В ролях: Nadia Macr, Regina Moon, Candy Alexa, Melissa Ria, Andy Brown, Valerie Folass, Lana, Fernando Vitale, Lauro Giotto, Frank Gun, May Payen, Sabby, Mugur-Описание:
Indem sie den italienischen Ministerpraesidenten verpfiff, wurde Nadia Macri zur wohl bekanntesten Escort-Dame der Welt. Laut eigener Aussage war sie es, die ihm die Maedchen fuer seine beruechtigten „Bunga Bunga“-Partys lieferte. In einem Interview mit dem beruehmten „TV-Bachelor“ Fernando Vitale (hier als Reporter) plaudert sie aus, was wir schon immer ueber die aufregende Welt des Begleit-Service wissen wollten. Sie berichtet ueber ihre Anfaenge in diesem Job und ihren steinigen Weg zu einem Luxus-Escort-Girl, ueber die „sexuellen Abgruende“ der maechtigen Politiker und ihre Ehefrauen, die diplomatisch schweigend ueber die Sex-Affaeren ihrer Maenner hinwegsehen ... Nadia enthuellt ein Geheimnis nach dem anderen; das Parlament soll Zittern! Schliesslich zeigt sie uns, durch ihre eigenen Erzaehlungen rattenscharf geworden, dass sie ein echtes Luder ist und macht sich gierig ueber das beste Stueck des Journalisten her …-Звук в DTS, на встроенном в ТВ плейере НЕ пойдёт-Тип HD видео: 1080p
Формат 3D: Half SideBySide / Горизонтальная анаморфная стереопара
Качество видео: BDRip
Формат видео: MKV
Видео кодек: H.264/AVC
Аудио кодек: DTS
Видео: MPEG4 Video (H264) / 1920x1080 / 23.98fps / 15.6 Mbps
Аудио: German / DTS / 48000Hz / stereo / 755 Kbps

MediaInfo

Общее
Уникальный идентификатор : 177081134801935427818951971835259872962 (0x85389604C23A36D685FDBFBEC63F66C2)
Полное имя : D:\Downloads\На раздачу\Grazie, Presidente! XXX 3D 2012 DTS BDRip halfSBS 1080p (IgorekSh).mkv
Формат : Matroska
Версия формата : Version 2
Размер файла : 13,8 Гбайт
Продолжительность : 1 ч. 58 м.
Общий поток : 16,7 Мбит/сек
Название фильма : Grazie,.Presidente!.3D.German.BD.H-SBS.1080p.-.NoName
Дата кодирования : UTC 2012-05-26 16:06:41
Программа кодирования : DVDFab
Библиотека кодирования : libebml v0.7.8 + libmatroska v0.8.1
Видео
Идентификатор : 1
Формат : AVC
Формат/Информация : Advanced Video Codec
Профиль формата : [email protected]
Параметр CABAC формата : Да
Параметр ReFrames формата : 2 кадра
Идентификатор кодека : V_MPEG4/ISO/AVC
Продолжительность : 1 ч. 58 м.
Битрейт : 15,6 Мбит/сек
Ширина : 1920 пикселей
Высота : 1080 пикселей
Соотношение сторон : 16:9
Частота кадров : 23,976 кадра/сек
Цветовое пространство : YUV
Субдискретизация насыщенности : 4:2:0
Битовая глубина : 8 бит
Тип развёртки : Прогрессивная
Бит/(Пиксели*Кадры) : 0.314
Размер потока : 12,9 Гбайт (93%)
Библиотека кодирования : x264 core
Default : Да
Forced : Нет
Основные цвета : BT.709-5, BT.1361, IEC 61966-2-4, SMPTE RP177
Характеристики трансфера : BT.709-5, BT.1361
Коэффициенты матрицы : BT.709-5, BT.1361, IEC 61966-2-4 709, SMPTE RP177
Аудио
Идентификатор : 2
Формат : DTS
Формат/Информация : Digital Theater Systems
Идентификатор кодека : A_DTS
Продолжительность : 1 ч. 58 м.
Вид битрейта : Постоянный
Битрейт : 755 Кбит/сек
Каналы : 2 канала
Расположение каналов : Front: L R
Частота : 48,0 КГц
Битовая глубина : 16 бит
Метод сжатия : С потерями
Размер потока : 640 Мбайт (5%)
Язык : German
Default : Да
Forced : Нет
Меню
00:00:00.000 : en:(01)00:00:00:000
00:06:59.919 : en:(02)00:06:59:919
00:15:23.797 : en:(03)00:15:23:797
00:21:10.018 : en:(04)00:21:10:018
00:33:57.493 : en:(05)00:33:57:493
00:41:46.337 : en:(06)00:41:46:337
01:01:00.573 : en:(07)01:01:00:573
01:11:17.898 : en:(08)01:11:17:898
01:25:29.165 : en:(09)01:25:29:165
01:48:02.517 : en:(10)01:48:02:517
01:58:35.441 : en:(11)01:58:35:441

Скринлист

Скрины





-Рипер IgorekSh
Скачать

Скачать бесплатно и на максимальной скорости!

Как скачивать? · Что такое торрент? · Рейтинг и ограничения

[Профиль]  [ЛС] 
Показать сообщения:    
Ответить на тему

Текущее время: Сегодня 20:37

Часовой пояс: GMT + 3



Вы не можете начинать темы
Вы не можете отвечать на сообщения
Вы не можете редактировать свои сообщения
Вы не можете удалять свои сообщения
Вы не можете голосовать в опросах
Вы не можете прикреплять файлы к сообщениям
Вы не можете скачивать файлы