This Ain't Dracula XXX A Porn Parody / Это не Дракула (Axel Braun, Hustler) [2011 г., Feature, Horror, Spoofs & Parodies, Vampires, 3D, Half OverUnder, 1080p, BDRip]Вертикальная анаморфная стереопара

Ответить на тему
 
Автор Сообщение

Ruzel ®

Стаж: 8 лет 2 месяца

Сообщений: 1671

Откуда: Московская обл

Пост 13-Янв-2013 16:54

[Цитировать] 

-This Ain't Dracula XXX A Porn Parody 3D/ Это не Дракула 3D- Год производства: 2011 г.
Страна: USA
Жанр: Feature, Horror, Spoofs & Parodies, Vampires, 3D, Half OverUnder
Продолжительность: 1:54:24-Режиссер: Axel Braun
Студия: Hustler-Язык: Английский
В ролях: Jessi Palmer, Evan Stone, Ryan Driller, Marie McCray, Jennifer Dark, Bridgette B, Brandi Aniston, Krissy Lynn, Tom Byron, Alan Stafford, Joey Brass.-Описание:
Count Dracula is back, and this time, with a sexual vengeance unlike any other Dracula you have ever seen. This sexual sci-fi masterpiece is sure to thrill you. And get you hot and sweaty. Nothing like some good old fashioned vampire sucking and *здесь я пытался ругнуться матом*.-Тип HD видео: 1080p
Качество видео: BDRip
Формат 3D: Half OverUnder / Вертикальная анаморфная стереопара
Формат видео: MKV
Видео кодек: H.264/AVC
Аудио кодек: AC3
Видео: AVC at 7.46 Mbps 1920 x 1080 at 23.976 fps
Аудио: AC-3 at 224 Kbps 2 channels, 48.0 KHz

MI

General
Unique ID : 217095132367700526214696369672772815329 (0xA353006A37F32586AC6B4268505289E1)
Complete name : F:\3D films\xxx\THIS AINT DRACULA XXX.(3D)2011.halfOU.mkv
Format : Matroska
File size : 6.14 GiB
Duration : 1h 54mn
Overall bit rate : 7 687 Kbps
Movie name : THIS AINT DRACULA XXX.Title1.Bluray3DRip
Encoded date : UTC 2012-04-02 23:18:46
Writing application : DVDFab
Writing library : libebml v0.7.8 + libmatroska v0.8.1
Video
ID : 3
Format : AVC
Format/Info : Advanced Video Codec
Format profile : [email protected]
Format settings, CABAC : Yes
Format settings, ReFrames : 2 frames
Codec ID : V_MPEG4/ISO/AVC
Duration : 1h 54mn
Bit rate : 7 310 Kbps
Width : 1 920 pixels
Height : 1 080 pixels
Display aspect ratio : 16:9
Frame rate : 23.976 fps
Color space : YUV
Chroma subsampling : 4:2:0
Bit depth : 8 bits
Scan type : Progressive
Bits/(Pixel*Frame) : 0.147
Stream size : 5.84 GiB (95%)
Writing library : x264 core
Color primaries : BT.709-5, BT.1361, IEC 61966-2-4, SMPTE RP177
Transfer characteristics : BT.709-5, BT.1361
Matrix coefficients : BT.709-5, BT.1361, IEC 61966-2-4 709, SMPTE RP177
Audio
ID : 4
Format : AC-3
Format/Info : Audio Coding 3
Mode extension : CM (complete main)
Codec ID : A_AC3
Duration : 1h 54mn
Bit rate mode : Constant
Bit rate : 224 Kbps
Channel(s) : 2 channels
Channel positions : Front: L R
Sampling rate : 48.0 KHz
Bit depth : 16 bits
Compression mode : Lossy
Stream size : 183 MiB (3%)
Language : English
Menu
00:00:00.000 : en:(01)00:00:00:000
00:01:49.234 : en:(02)00:01:49:234
00:04:14.587 : en:(03)00:04:14:587
00:05:12.645 : en:(04)00:05:12:645
00:08:47.443 : en:(05)00:08:47:443
00:14:09.515 : en:(06)00:14:09:515
00:19:40.721 : en:(07)00:19:40:721
00:27:21.681 : en:(08)00:27:21:681
00:28:36.673 : en:(09)00:28:36:673
00:30:14.979 : en:(10)00:30:14:979
00:31:47.739 : en:(11)00:31:47:739
00:34:50.880 : en:(12)00:34:50:880
00:38:07.243 : en:(13)00:38:07:243
00:40:48.404 : en:(14)00:40:48:404
00:43:41.577 : en:(15)00:43:41:577
00:47:40.816 : en:(16)00:47:40:816
00:52:25.475 : en:(17)00:52:25:475
00:55:07.679 : en:(18)00:55:07:679
00:58:20.872 : en:(19)00:58:20:872
01:02:46.345 : en:(20)01:02:46:345
01:04:41.210 : en:(21)01:04:41:210
01:05:32.970 : en:(22)01:05:32:970
01:06:18.015 : en:(23)01:06:18:015
01:07:38.971 : en:(24)01:07:38:971
01:09:55.149 : en:(25)01:09:55:149
01:13:20.896 : en:(26)01:13:20:896
01:17:09.958 : en:(27)01:17:09:958
01:23:30.839 : en:(28)01:23:30:839
01:30:33.386 : en:(29)01:30:33:386
01:31:33.821 : en:(30)01:31:33:821
01:33:07.248 : en:(31)01:33:07:248
01:36:20.357 : en:(32)01:36:20:357
01:38:39.872 : en:(33)01:38:39:872
01:44:09.576 : en:(34)01:44:09:576
01:47:39.786 : en:(35)01:47:39:786
01:50:41.926 : en:(36)01:50:41:926
01:51:45.657 : en:(37)01:51:45:657
01:52:57.103 : en:(38)01:52:57:103
01:53:54.035 : en:(39)01:53:54:035

Скрины




Скачать

Скачать бесплатно и на максимальной скорости!

Как скачивать? · Что такое торрент? · Рейтинг и ограничения

[Профиль]  [ЛС] 
Показать сообщения:    
Ответить на тему

Текущее время: Сегодня 15:38

Часовой пояс: GMT + 3



Вы не можете начинать темы
Вы не можете отвечать на сообщения
Вы не можете редактировать свои сообщения
Вы не можете удалять свои сообщения
Вы не можете голосовать в опросах
Вы не можете прикреплять файлы к сообщениям
Вы не можете скачивать файлы