(Glitch-Hop) The Glitch Mob - Drink the Sea - 2010, FLAC (tracks), lossless

Ответить на тему
 
Автор Сообщение

Strike ®

Стаж: 10 лет

Сообщений: 127

Откуда: Grand Line

Пост 10-Фев-2011 20:46

[Цитировать] 

The Glitch Mob - Drink the Sea- Страна: USA
Жанр: Glitch-Hop / Electronic
Год выпуска: 2010
Формат: FLAC (tracks)
Битрейт аудио: lossless
Продолжительность: 59:37-Трэклист:
  • 1 Animus Vox
  • 2 Bad Wings
  • 3 How To Be Eaten By A Woman
  • 4 A Dream Within A Dream
  • 5 Fistful of Silence
  • 6 Between Two Points feat. Swan
  • 7 We Swarm
  • 8 Drive It Like You Stole It
  • 9 Fortune Days
  • 10 Starve The Ego, Feed The Soul[/list:u]-

    EAC

    Exact Audio Copy V0.99 prebeta 5 from 4. May 2009
    EAC extraction logfile from 27. May 2010, 0:14
    The Glitch Mob / Drink the Sea
    Used drive : TSSTcorpCDRWDVD TSL462D Adapter: 1 ID: 0
    Read mode : Secure
    Utilize accurate stream : Yes
    Defeat audio cache : Yes
    Make use of C2 pointers : No
    Read offset correction : 6
    Overread into Lead-In and Lead-Out : No
    Fill up missing offset samples with silence : Yes
    Delete leading and trailing silent blocks : No
    Null samples used in CRC calculations : Yes
    Used interface : Native Win32 interface for Win NT & 2000
    Gap handling : Appended to previous track
    Used output format : User Defined Encoder
    Selected bitrate : 320 kBit/s
    Quality : High
    Add ID3 tag : No
    Command line compressor : C:\Program Files\Exact Audio Copy\Flac\flac.exe
    Additional command line options : -V -8 -T "artist=%a" -T "title=%t" -T "album=%g" -T "date=%y" -T "tracknumber=%n" -T "genre=%m" %s
    TOC of the extracted CD
    Track | Start | Length | Start sector | End sector
    ---------------------------------------------------------
    1 | 0:00.00 | 6:44.42 | 0 | 30341
    2 | 6:44.42 | 6:39.40 | 30342 | 60306
    3 | 13:24.07 | 5:59.34 | 60307 | 87265
    4 | 19:23.41 | 5:24.33 | 87266 | 111598
    5 | 24:47.74 | 5:11.15 | 111599 | 134938
    6 | 29:59.14 | 5:36.65 | 134939 | 160203
    7 | 35:36.04 | 5:53.74 | 160204 | 186752
    8 | 41:30.03 | 5:55.09 | 186753 | 213386
    9 | 47:25.12 | 6:22.35 | 213387 | 242071
    10 | 53:47.47 | 5:49.19 | 242072 | 268265
    Track 1
    Filename C:\EACrips\The Glitch Mob - 2010 - Drink the Sea\01 - Animus Vox.wav
    Pre-gap length 0:00:02.00
    Peak level 100.0 %
    Track quality 100.0 %
    Test CRC 0C33AC0A
    Copy CRC 0C33AC0A
    Track not present in AccurateRip database
    Copy OK
    Track 2
    Filename C:\EACrips\The Glitch Mob - 2010 - Drink the Sea\02 - Bad Wings.wav
    Pre-gap length 0:00:01.14
    Peak level 100.0 %
    Track quality 100.0 %
    Test CRC 076D0CB1
    Copy CRC 076D0CB1
    Track not present in AccurateRip database
    Copy OK
    Track 3
    Filename C:\EACrips\The Glitch Mob - 2010 - Drink the Sea\03 - How To Be Eaten By A Woman.wav
    Pre-gap length 0:00:00.69
    Peak level 100.0 %
    Track quality 100.0 %
    Test CRC 2C619F26
    Copy CRC 2C619F26
    Track not present in AccurateRip database
    Copy OK
    Track 4
    Filename C:\EACrips\The Glitch Mob - 2010 - Drink the Sea\04 - A Dream Within A Dream.wav
    Pre-gap length 0:00:00.70
    Peak level 100.0 %
    Track quality 99.9 %
    Test CRC 016E7B3A
    Copy CRC 016E7B3A
    Track not present in AccurateRip database
    Copy OK
    Track 5
    Filename C:\EACrips\The Glitch Mob - 2010 - Drink the Sea\05 - Fistful of Silence.wav
    Pre-gap length 0:00:02.29
    Peak level 100.0 %
    Track quality 100.0 %
    Test CRC 2FE00C4D
    Copy CRC 2FE00C4D
    Track not present in AccurateRip database
    Copy OK
    Track 6
    Filename C:\EACrips\The Glitch Mob - 2010 - Drink the Sea\06 - Between Two Points (feat. Swan).wav
    Pre-gap length 0:00:01.36
    Peak level 100.0 %
    Track quality 100.0 %
    Test CRC 69514D7B
    Copy CRC 69514D7B
    Track not present in AccurateRip database
    Copy OK
    Track 7
    Filename C:\EACrips\The Glitch Mob - 2010 - Drink the Sea\07 - We Swarm.wav
    Pre-gap length 0:00:02.57
    Peak level 100.0 %
    Track quality 99.9 %
    Test CRC A103DD9E
    Copy CRC A103DD9E
    Track not present in AccurateRip database
    Copy OK
    Track 8
    Filename C:\EACrips\The Glitch Mob - 2010 - Drink the Sea\08 - Drive It Like You Stole It.wav
    Pre-gap length 0:00:00.80
    Peak level 100.0 %
    Track quality 100.0 %
    Test CRC F708AC9D
    Copy CRC F708AC9D
    Track not present in AccurateRip database
    Copy OK
    Track 9
    Filename C:\EACrips\The Glitch Mob - 2010 - Drink the Sea\09 - Fortune Days.wav
    Pre-gap length 0:00:00.16
    Peak level 100.0 %
    Track quality 100.0 %
    Test CRC B1ADF590
    Copy CRC B1ADF590
    Track not present in AccurateRip database
    Copy OK
    Track 10
    Filename C:\EACrips\The Glitch Mob - 2010 - Drink the Sea\10 - Starve The Ego, Feed The Soul.wav
    Pre-gap length 0:00:00.86
    Peak level 100.0 %
    Track quality 100.0 %
    Test CRC ED8F3B7C
    Copy CRC ED8F3B7C
    Track not present in AccurateRip database
    Copy OK
    None of the tracks are present in the AccurateRip database
    No errors occurred
    End of status report

    CUE

    REM GENRE Dubstep
    REM DATE 2010
    REM DISCID 8B0DF80A
    REM COMMENT "ExactAudioCopy v0.99pb5"
    FILE "01 - Animus Vox.wav" WAVE
    TRACK 01 AUDIO
    INDEX 01 00:00:00
    TRACK 02 AUDIO
    INDEX 00 06:43:31
    FILE "02 - Bad Wings.wav" WAVE
    INDEX 01 00:00:00
    TRACK 03 AUDIO
    INDEX 00 06:38:63
    FILE "03 - How To Be Eaten By A Woman.wav" WAVE
    INDEX 01 00:00:00
    TRACK 04 AUDIO
    INDEX 00 05:58:56
    FILE "04 - A Dream Within A Dream.wav" WAVE
    INDEX 01 00:00:00
    TRACK 05 AUDIO
    INDEX 00 05:22:11
    FILE "05 - Fistful of Silence.wav" WAVE
    INDEX 01 00:00:00
    TRACK 06 AUDIO
    INDEX 00 05:09:63
    FILE "06 - Between Two Points (feat. Swan).wav" WAVE
    INDEX 01 00:00:00
    TRACK 07 AUDIO
    INDEX 00 05:34:22
    FILE "07 - We Swarm.wav" WAVE
    INDEX 01 00:00:00
    TRACK 08 AUDIO
    INDEX 00 05:53:14
    FILE "08 - Drive It Like You Stole It.wav" WAVE
    INDEX 01 00:00:00
    TRACK 09 AUDIO
    INDEX 00 05:54:72
    FILE "09 - Fortune Days.wav" WAVE
    INDEX 01 00:00:00
    TRACK 10 AUDIO
    INDEX 00 06:21:45
    FILE "10 - Starve The Ego, Feed The Soul.wav" WAVE
    INDEX 01 00:00:00
    Скачать

    Скачать бесплатно и на максимальной скорости!

    Как скачивать? · Что такое торрент? · Рейтинг и ограничения

[Профиль]  [ЛС] 

Strike ®

Стаж: 10 лет

Сообщений: 127

Откуда: Grand Line

Пост 10-Фев-2011 20:59 (спустя 12 минут)

[Цитировать] 

Что-то необычно офигенное, никогда такого не слышал.
[Профиль]  [ЛС] 

crAzYb0t

Стаж: 7 лет 9 месяцев

Сообщений: 31

Откуда: RU

Пост 10-Фев-2011 22:51 (спустя 1 час 52 минуты)

[Цитировать] 

Необычное =) музычка из компьютерных игрушек типа гг

_________________
[Профиль]  [ЛС] 

dark47

Стаж: 9 лет 6 месяцев

Сообщений: 17

Пост 10-Фев-2011 23:21 (спустя 29 минут)

[Цитировать] 

Спасибо!
P.S.
если кому понравилось, то могу пару альбомов выложить!
[Профиль]  [ЛС] 

immortall666

Стаж: 10 лет

Сообщений: 1

Пост 10-Фев-2011 23:25 (спустя 4 минуты)

[Цитировать] 

Музня суперрр!!!Спасибо!
[Профиль]  [ЛС] 
Показать сообщения:    
Ответить на тему

Текущее время: Сегодня 08:57

Часовой пояс: GMT + 3



Вы не можете начинать темы
Вы не можете отвечать на сообщения
Вы не можете редактировать свои сообщения
Вы не можете удалять свои сообщения
Вы не можете голосовать в опросах
Вы не можете прикреплять файлы к сообщениям
Вы не можете скачивать файлы