(Trance, Progressive Trance) Armin van Buuren - A State Of Trance 2011 - 2011, FLAC (image + .cue), lossless

Ответить на тему
 
Автор Сообщение

me6lex ®

Стаж: 10 лет

Сообщений: 125

Откуда: площадка

Пост 20-Мар-2011 12:16

[Цитировать] 

Armin van Buuren - A State Of Trance 2011
Страна: Netherlands
Жанр: Trance, Progressive Trance
Год выпуска: 2011
Формат: FLAC (image + .cue)
Битрейт аудио: lossless
Продолжительность: 02:36:25
Трэклист:
CD 1 On The Beach (01:16:52)
01 Triple A - Winter Stayed (Armin van Buuren's On the Beach Intro Mix) [08:55]
02 The Blizzard & Omnia - My Inner Island [05:37]
03 Mike Shiver vs Matias Lehtola - Slacker [04:11]
04 Dreas vs Alex Robert - Mormugao (Alex Robert 2011 Mix) [04:11]
05 Anhken - Always Look Back [05:16]
06 Nuera - Green Cape Sunset [04:23]
07 Rex Mundi - Sandstone [06:47]
08 Robert Nickson & Thomas Datt - Godless (Protoculture Remix) [04:21]
09 Bobina - Lamento Sentimental [04:58]
10 Mark Otten - Libertine [06:30]
11 Max Graham feat. Neev Kennedy - So Caught Up [05:49]
12 Ashley Wallbridge - Moonlight Sonata [04:25]
13 Beat Service feat. Cathy Burton - When Tomorrow Never Comes [05:12]
14 Arty & Mat Zo - Rebound [06:11]
CD 2 In The Club (01:19:33)
01 Ron Hagen & Al Exander - Now Is The Time (Armin van Buuren's Intro Edit) [07:38]
02 Super8 & Tab feat. Julie Thompson - My Enemy (Rank 1 Remix) [04:01]
03 Shogun - Skyfire [05:16]
04 John O'Callaghan & Timmy & Tommy - Talk To Me (Шrjan Nilsen Trance Mix) [05:55]
05 Armin van Buuren presents Gaia - Status Excessu D (ASOT 500 Theme) [07:06]
06 Mark Eteson - Blackboard (Jon O'Bir Remix) [05:38]
07 Daniel Kandi & Phillip Alpha - If It Ain't Broke [04:59]
08 Andrew Rayel - Aether [05:14]
09 Шrjan Nilsen - Between The Rays [03:45]
10 Armin van Buuren feat. Winter Kills - Take A Moment (Alex M.O.R.P.H. Remix) [05:38]
11 Lost World - Stargazer [02:48]
12 Aly & Fila feat. Jwaydan - We Control The Sunlight [06:04]
13 Juventa - Dionysia [03:58]
14 Bjorn Akesson - Painting Pyramids [05:22]
15 Laura Jansen - Use Somebody (Armin van Buuren Rework) [06:04]

logs and sheets

Log EAC CD 1

Exact Audio Copy V0.99 prebeta 5 from 4. May 2009
EAC extraction logfile from 18. March 2011, 22:41
VA / A State Of Trance 2011 CD1 On The Beach (Mixed By Armin Van Buuren)
Used drive : PIONEER DVD-RW DVRTD08RS Adapter: 1 ID: 0
Read mode : Secure
Utilize accurate stream : Yes
Defeat audio cache : Yes
Make use of C2 pointers : No
Read offset correction : 48
Overread into Lead-In and Lead-Out : No
Fill up missing offset samples with silence : Yes
Delete leading and trailing silent blocks : No
Null samples used in CRC calculations : Yes
Used interface : Native Win32 interface for Win NT & 2000
Used output format : Internal WAV Routines
Sample format : 44.100 Hz; 16 Bit; Stereo
TOC of the extracted CD
Track | Start | Length | Start sector | End sector
---------------------------------------------------------
1 | 0:00.00 | 8:55.16 | 0 | 40140
2 | 8:55.16 | 5:37.06 | 40141 | 65421
3 | 14:32.22 | 4:11.06 | 65422 | 84252
4 | 18:43.28 | 4:11.06 | 84253 | 103083
5 | 22:54.34 | 5:16.71 | 103084 | 126854
6 | 28:11.30 | 4:23.52 | 126855 | 146631
7 | 32:35.07 | 6:47.20 | 146632 | 177176
8 | 39:22.27 | 4:21.62 | 177177 | 196813
9 | 43:44.14 | 4:58.14 | 196814 | 219177
10 | 48:42.28 | 6:30.68 | 219178 | 248495
11 | 55:13.21 | 5:49.06 | 248496 | 274676
12 | 61:02.27 | 4:25.35 | 274677 | 294586
13 | 65:27.62 | 5:12.54 | 294587 | 318040
14 | 70:40.41 | 6:11.35 | 318041 | 345900
Range status and errors
Selected range
Filename H:\EACRIPS\VA - A State Of Trance 2011 CD1 On The Beach (Mixed By Armin Van Buuren).wav
Peak level 96.6 %
Range quality 99.9 %
Test CRC BCE3BA6F
Copy CRC BCE3BA6F
Copy OK
No errors occurred
AccurateRip summary
Track 1 not present in database
Track 2 not present in database
Track 3 not present in database
Track 4 not present in database
Track 5 not present in database
Track 6 not present in database
Track 7 not present in database
Track 8 not present in database
Track 9 not present in database
Track 10 not present in database
Track 11 not present in database
Track 12 not present in database
Track 13 not present in database
Track 14 not present in database
None of the tracks are present in the AccurateRip database
End of status report

cue CD 1

REM COMMENT "ExactAudioCopy v0.99pb5"
PERFORMER "VA"
TITLE "A State Of Trance 2011 (Mixed By Armin Van Buuren) CD 1 On The Beach"
FILE "101-va_-_a_state_of_trance_2011_(mixed_by_armin_van_buuren)_cd_1_on_the_beach-tt.flac" FLAC
TRACK 01 AUDIO
TITLE "Winter Stayed (Armin van Buuren's On the Beach Intro Mix)"
PERFORMER "Triple A"
INDEX 01 00:00:00
TRACK 02 AUDIO
TITLE "My Inner Island"
PERFORMER "The Blizzard & Omnia"
INDEX 01 08:55:16
TRACK 03 AUDIO
TITLE "Slacker"
PERFORMER "Mike Shiver vs Matias Lehtola"
INDEX 01 14:32:22
TRACK 04 AUDIO
TITLE "Mormugao (Alex Robert 2011 Mix)"
PERFORMER "Dreas vs Alex Robert"
INDEX 01 18:43:28
TRACK 05 AUDIO
TITLE "Always Look Back"
PERFORMER "Anhken"
INDEX 01 22:54:34
TRACK 06 AUDIO
TITLE "Green Cape Sunset"
PERFORMER "Nuera"
INDEX 01 28:11:30
TRACK 07 AUDIO
TITLE "Sandstone"
PERFORMER "Rex Mundi"
INDEX 01 32:35:07
TRACK 08 AUDIO
TITLE "Godless (Protoculture Remix)"
PERFORMER "Robert Nickson & Thomas Datt"
INDEX 01 39:22:27
TRACK 09 AUDIO
TITLE "Lamento Sentimental"
PERFORMER "Bobina"
INDEX 01 43:44:14
TRACK 10 AUDIO
TITLE "Libertine"
PERFORMER "Mark Otten"
INDEX 01 48:42:28
TRACK 11 AUDIO
TITLE "So Caught Up"
PERFORMER "Max Graham feat. Neev Kennedy"
INDEX 01 55:13:21
TRACK 12 AUDIO
TITLE "Moonlight Sonata"
PERFORMER "Ashley Wallbridge"
INDEX 01 61:02:27
TRACK 13 AUDIO
TITLE "When Tomorrow Never Comes"
PERFORMER "Beat Service feat. Cathy Burton"
INDEX 01 65:27:62
TRACK 14 AUDIO
TITLE "Rebound"
PERFORMER "Arty & Mat Zo"
INDEX 01 70:40:41

Log EAC CD 2

Exact Audio Copy V0.99 prebeta 5 from 4. May 2009
EAC extraction logfile from 18. March 2011, 23:17
VA / A State Of Trance 2011 CD 2 In The Club (Mixed By Armin Van Buuren
Used drive : PIONEER DVD-RW DVRTD08RS Adapter: 1 ID: 0
Read mode : Secure
Utilize accurate stream : Yes
Defeat audio cache : Yes
Make use of C2 pointers : No
Read offset correction : 48
Overread into Lead-In and Lead-Out : No
Fill up missing offset samples with silence : Yes
Delete leading and trailing silent blocks : No
Null samples used in CRC calculations : Yes
Used interface : Native Win32 interface for Win NT & 2000
Used output format : Internal WAV Routines
Sample format : 44.100 Hz; 16 Bit; Stereo
TOC of the extracted CD
Track | Start | Length | Start sector | End sector
---------------------------------------------------------
1 | 0:00.00 | 7:38.02 | 0 | 34351
2 | 7:38.02 | 4:01.58 | 34352 | 52484
3 | 11:39.60 | 5:16.34 | 52485 | 76218
4 | 16:56.19 | 5:55.41 | 76219 | 102884
5 | 22:51.60 | 7:06.50 | 102885 | 134884
6 | 29:58.35 | 5:38.62 | 134885 | 160296
7 | 35:37.22 | 4:59.74 | 160297 | 182795
8 | 40:37.21 | 5:14.09 | 182796 | 206354
9 | 45:51.30 | 3:45.65 | 206355 | 223294
10 | 49:37.20 | 5:38.61 | 223295 | 248705
11 | 55:16.06 | 2:48.21 | 248706 | 261326
12 | 58:04.27 | 6:04.28 | 261327 | 288654
13 | 64:08.55 | 3:58.19 | 288655 | 306523
14 | 68:06.74 | 5:22.24 | 306524 | 330697
15 | 73:29.23 | 6:04.29 | 330698 | 358026
Range status and errors
Selected range
Filename H:\EACRIPS\VA - A State Of Trance 2011 CD 2 In The Club (Mixed By Armin Van Buuren.wav
Peak level 96.6 %
Range quality 100.0 %
Test CRC E98D4AA5
Copy CRC E98D4AA5
Copy OK
No errors occurred
AccurateRip summary
Track 1 not present in database
Track 2 not present in database
Track 3 not present in database
Track 4 not present in database
Track 5 not present in database
Track 6 not present in database
Track 7 not present in database
Track 8 not present in database
Track 9 not present in database
Track 10 not present in database
Track 11 not present in database
Track 12 not present in database
Track 13 not present in database
Track 14 not present in database
Track 15 not present in database
None of the tracks are present in the AccurateRip database
End of status report

cue CD 2

REM COMMENT "ExactAudioCopy v0.99pb5"
PERFORMER "VA"
TITLE "A State Of Trance 2011 (Mixed By Armin Van Buuren) CD 2 In The Club"
FILE "201-va_-_a_state_of_trance_2011_(mixed_by_armin_van_buuren)_cd_2_in_the_club-tt.flac" FLAC
TRACK 01 AUDIO
TITLE "Now Is The Time (Armin van Buuren's Intro Edit)"
PERFORMER "Ron Hagen & Al Exander"
INDEX 01 00:00:00
TRACK 02 AUDIO
TITLE "My Enemy (Rank 1 Remix)"
PERFORMER "Super8 & Tab feat. Julie Thompson"
INDEX 01 07:38:02
TRACK 03 AUDIO
TITLE "Skyfire"
PERFORMER "Shogun"
INDEX 01 11:39:60
TRACK 04 AUDIO
TITLE "Talk To Me (Шrjan Nilsen Trance Mix)"
PERFORMER "John O'Callaghan & Timmy & Tommy"
INDEX 01 16:56:19
TRACK 05 AUDIO
TITLE "Status Excessu D (ASOT 500 Theme)"
PERFORMER "Armin van Buuren presents Gaia"
INDEX 01 22:51:60
TRACK 06 AUDIO
TITLE "Blackboard (Jon O'Bir Remix)"
PERFORMER "Mark Eteson"
INDEX 01 29:58:35
TRACK 07 AUDIO
TITLE "If It Ain't Broke"
PERFORMER "Daniel Kandi & Phillip Alpha"
INDEX 01 35:37:22
TRACK 08 AUDIO
TITLE "Aether"
PERFORMER "Andrew Rayel"
INDEX 01 40:37:21
TRACK 09 AUDIO
TITLE "Between The Rays"
PERFORMER "Шrjan Nilsen"
INDEX 01 45:51:30
TRACK 10 AUDIO
TITLE "Take A Moment (Alex M.O.R.P.H. Remix)"
PERFORMER "Armin van Buuren feat. Winter Kills"
INDEX 01 49:37:20
TRACK 11 AUDIO
TITLE "Stargazer"
PERFORMER "Lost World"
INDEX 01 55:16:06
TRACK 12 AUDIO
TITLE "We Control The Sunlight"
PERFORMER "Aly & Fila feat. Jwaydan"
INDEX 01 58:04:27
TRACK 13 AUDIO
TITLE "Dionysia"
PERFORMER "Juventa"
INDEX 01 64:08:55
TRACK 14 AUDIO
TITLE "Painting Pyramids"
PERFORMER "Bjorn Akesson"
INDEX 01 68:06:74
TRACK 15 AUDIO
TITLE "Use Somebody (Armin van Buuren Rework)"
PERFORMER "Laura Jansen"
INDEX 01 73:29:23

auCDtect

-----------------------
DON'T MODIFY THIS FILE
-----------------------
PERFORMER: auCDtect Task Manager, ver. 1.5.1RC4 build 1.5.1.5
Copyright (c) 2008-2010 y-soft. All rights reserved
http://y-soft.org
ANALYZER: auCDtect: CD records authenticity detector, version 0.8.2
Copyright (c) 2004 Oleg Berngardt. All rights reserved.
Copyright (c) 2004 Alexander Djourik. All rights reserved.
FILE: 201-va_-_a_state_of_trance_2011_(mixed_by_armin_van_buuren)_cd_2_in_the_club-tt.flac
Size: 606097569 Hash: 3B8AF2EB3D4031D227F1CB245281AF08 Accuracy: -m0
Conclusion: CDDA 100%
Signature: 94581CEF6540F329442F677971080AEA54A8E93F
FILE: 101-va_-_a_state_of_trance_2011_(mixed_by_armin_van_buuren)_cd_1_on_the_beach-tt.flac
Size: 582561049 Hash: 6F6B50B0CC3BAE660DC60AB56BB6C877 Accuracy: -m0
Conclusion: CDDA 100%
Signature: 3CC181311C5508674D07AF71F1F5125964212941
Скачать

Скачать бесплатно и на максимальной скорости!

Как скачивать? · Что такое торрент? · Рейтинг и ограничения


_________________


Последний раз редактировалось: me6lex (2011-03-20 13:49), всего редактировалось 1 раз
[Профиль]  [ЛС] 

Three7

Стаж: 10 лет

Сообщений: 464

Откуда: Тула

Пост 20-Мар-2011 13:07 (спустя 51 минута)

[Цитировать] 

Необходимо указывать в теме лог извлечения.
[Профиль]  [ЛС] 

me6lex ®

Стаж: 10 лет

Сообщений: 125

Откуда: площадка

Пост 20-Мар-2011 13:49 (спустя 41 минута)

[Цитировать] 

Типа вот так?

_________________
[Профиль]  [ЛС] 

71_4yKaN4iK

Стаж: 7 лет 10 месяцев

Сообщений: 6

Откуда: г. Алексин (Тульская обл.)

Пост 20-Мар-2011 14:49 (спустя 59 минут)

[Цитировать] 

Качать стоит?
[Профиль]  [ЛС] 

me6lex ®

Стаж: 10 лет

Сообщений: 125

Откуда: площадка

Пост 20-Мар-2011 15:31 (спустя 42 минуты)

[Цитировать] 

Прослушал на одном дыхании!

_________________
[Профиль]  [ЛС] 

Three7

Стаж: 10 лет

Сообщений: 464

Откуда: Тула

Пост 20-Мар-2011 15:37 (спустя 5 минут)

[Цитировать] 

me6lex, именно так ad
[Профиль]  [ЛС] 

me6lex ®

Стаж: 10 лет

Сообщений: 125

Откуда: площадка

Пост 20-Мар-2011 19:21 (спустя 3 часа)

[Цитировать] 

Народ, извините, скорость маленькая, так как пересел на БиЛайн.

_________________
[Профиль]  [ЛС] 

AlexFanat

Стаж: 9 лет 8 месяцев

Сообщений: 76

Откуда: Болохово

Пост 22-Мар-2011 17:50 (спустя 1 день 22 часа)

[Цитировать] 

Качать стоит?
Был немного обескуражен таким вопросом(

_________________
[Профиль]  [ЛС] 

Brem7

Стаж: 9 лет 3 месяца

Сообщений: 6

Пост 24-Мар-2011 00:05 (спустя 1 день 6 часов)

[Цитировать] 

Супер, нет больше слов......

_________________

[Профиль]  [ЛС] 
Показать сообщения:    
Ответить на тему

Текущее время: Сегодня 16:20

Часовой пояс: GMT + 3



Вы не можете начинать темы
Вы не можете отвечать на сообщения
Вы не можете редактировать свои сообщения
Вы не можете удалять свои сообщения
Вы не можете голосовать в опросах
Вы не можете прикреплять файлы к сообщениям
Вы не можете скачивать файлы