(Progressive House, Trance) Club Life Volume 1: Las Vegas (mixed by Tiesto), FLAC, lossless

Ответить на тему
 
Автор Сообщение

dee-ma ®

Стаж: 9 лет 9 месяцев

Сообщений: 284

Откуда: A State of Trance

Пост 12-Апр-2011 19:06

[Цитировать] 

Club Life Volume 1: Las Vegas (mixed by Tiesto) Жанр: Progressive House, Trance
Год выпуска: 2011
Формат: FLAC tracks+.cue
Битрейт аудио: lossless
Продолжительность: 01:17:58
Released by:

Трэклист


01. Henrik B feat. Christian Älvestam - Now & Forever (Original Mix) [7:45]
02. Tom Hangs feat. Shermanology - Blessed (Original Mix) [4:52]
03. Cazzi Opeia - I Belong To You (Axel Bauer and Lanford Remix) [6:00]
04. Steve Forte Rio feat Lindsey Ray - Slumber (Original Mix) [5:44]
05. Lune - Girls With Bangs (Tiësto Remix) [4:31]
06. Rebecca & Fiona - Bullets (Club Mix) [4:30]
07. Dúné - Heiress of Valentina (Alesso Exclusive Mix) [5:15]
08. Tiësto & Marcel Woods - Don't Ditch (Original Mix) [5:38]
09. Amy Meredith - Young At Heart (Angger Dimas Remix) [4:15]
10. Alex Sayz - Faces (Original Mix) [5:15]
11. Moguai - We Want Your Soul (Thomas Gold Remix) [4:30]
12. Boys Will Be Boys - We Rock (Original Mix) [5:00]
13. Tiësto & Hardwell - Zero 76 (Original Mix) [5:00]
14. Kaskade feat. Martina of Dragonette - Fire In Your New Shoes (Sultan & Ned Shepard Electric Daisy Remix) [5:37]
15. Tiësto vs Diplo - C'mon (Original Mix) [4:06]

Лог создания рипа

X Lossless Decoder version 20110312 (130.0)
XLD extraction logfile from 2011-04-07 19:03:34 -0400
TiГ«sto / Various Artists - Club Life Volume One Las Vegas (Mixed by Ti‘sto) [FLAC] [2011]
Used drive : OPTIARC DVD RW AD-5680H (revision 3AHB)
Ripper mode : XLD Secure Ripper
Disable audio cache : OK for the drive with a cache less than 1375KiB
Make use of C2 pointers : NO
Read offset correction : 48
Max retry count : 100
Gap status : Analyzed, Appended
TOC of the extracted CD
Track | Start | Length | Start sector | End sector
---------------------------------------------------------
1 | 00:00:00 | 07:45:32 | 0 | 34906
2 | 07:45:32 | 04:52:35 | 34907 | 56841
3 | 12:37:67 | 06:00:03 | 56842 | 83844
4 | 18:37:70 | 05:44:37 | 83845 | 109681
5 | 24:22:32 | 04:30:40 | 109682 | 129971
6 | 28:52:72 | 04:30:03 | 129972 | 150224
7 | 33:23:00 | 05:14:72 | 150225 | 173846
8 | 38:37:72 | 05:37:73 | 173847 | 199194
9 | 44:15:70 | 04:14:42 | 199195 | 218286
10 | 48:30:37 | 05:15:00 | 218287 | 241911
11 | 53:45:37 | 04:30:00 | 241912 | 262161
12 | 58:15:37 | 05:00:00 | 262162 | 284661
13 | 63:15:37 | 05:00:03 | 284662 | 307164
14 | 68:15:40 | 05:37:37 | 307165 | 332476
15 | 73:53:02 | 04:05:55 | 332477 | 350906
AccurateRip Summary
Disc not found in AccurateRip DB.
All Tracks
Album gain : -8.53 dB
Peak : 0.999969
Statistics
Read error : 0
Jitter error (maybe fixed) : 0
Retry sector count : 0
Damaged sector count : 0
Track 01
Filename : /Users/Shared/Rips/Various Artists - Club Life Volume One Las Vegas (Mixed by Ti‘sto) [FLAC] [2011]/01 Now & Forever (Original Mix).flac
Pre-gap length : 00:02:00
Track gain : -9.29 dB
Peak : 0.999969
CRC32 hash (test run) : 704203AC
CRC32 hash : 704203AC
CRC32 hash (skip zero) : E7D0DFAB
AccurateRip signature : 35F6B8DF
->Track not present in AccurateRip database.
Statistics
Read error : 0
Jitter error (maybe fixed) : 0
Retry sector count : 0
Damaged sector count : 0
Track 02
Filename : /Users/Shared/Rips/Various Artists - Club Life Volume One Las Vegas (Mixed by Ti‘sto) [FLAC] [2011]/02 Blessed (Original Mix).flac
Track gain : -7.36 dB
Peak : 0.999969
CRC32 hash (test run) : 30C3EDCC
CRC32 hash : 30C3EDCC
CRC32 hash (skip zero) : B5015F11
AccurateRip signature : 2BE91373
->Track not present in AccurateRip database.
Statistics
Read error : 0
Jitter error (maybe fixed) : 0
Retry sector count : 0
Damaged sector count : 0
Track 03
Filename : /Users/Shared/Rips/Various Artists - Club Life Volume One Las Vegas (Mixed by Ti‘sto) [FLAC] [2011]/03 I Belong To You (Axel Bauer and Lanford Remix).flac
Track gain : -7.07 dB
Peak : 0.999969
CRC32 hash (test run) : BC1D3372
CRC32 hash : BC1D3372
CRC32 hash (skip zero) : E359959F
AccurateRip signature : 48DB5603
->Track not present in AccurateRip database.
Statistics
Read error : 0
Jitter error (maybe fixed) : 0
Retry sector count : 0
Damaged sector count : 0
Track 04
Filename : /Users/Shared/Rips/Various Artists - Club Life Volume One Las Vegas (Mixed by Ti‘sto) [FLAC] [2011]/04 Slumber (Original Mix).flac
Track gain : -8.76 dB
Peak : 0.999969
CRC32 hash (test run) : 41ED1981
CRC32 hash : 41ED1981
CRC32 hash (skip zero) : E3A811AA
AccurateRip signature : 14AF31C0
->Track not present in AccurateRip database.
Statistics
Read error : 0
Jitter error (maybe fixed) : 0
Retry sector count : 0
Damaged sector count : 0
Track 05
Filename : /Users/Shared/Rips/Various Artists - Club Life Volume One Las Vegas (Mixed by Ti‘sto) [FLAC] [2011]/05 Girls With Bangs (TiГ«sto Remix).flac
Track gain : -8.64 dB
Peak : 0.999969
CRC32 hash (test run) : 37184BC9
CRC32 hash : 37184BC9
CRC32 hash (skip zero) : 67888FDA
AccurateRip signature : 08B487C1
->Track not present in AccurateRip database.
Statistics
Read error : 0
Jitter error (maybe fixed) : 0
Retry sector count : 0
Damaged sector count : 0
Track 06
Filename : /Users/Shared/Rips/Various Artists - Club Life Volume One Las Vegas (Mixed by Ti‘sto) [FLAC] [2011]/06 Bullets (Club Mix).flac
Track gain : -8.06 dB
Peak : 0.999969
CRC32 hash (test run) : AC83D1AE
CRC32 hash : AC83D1AE
CRC32 hash (skip zero) : 8268DA48
AccurateRip signature : 756B6BD7
->Track not present in AccurateRip database.
Statistics
Read error : 0
Jitter error (maybe fixed) : 0
Retry sector count : 0
Damaged sector count : 0
Track 07
Filename : /Users/Shared/Rips/Various Artists - Club Life Volume One Las Vegas (Mixed by Ti‘sto) [FLAC] [2011]/07 Heiress of Valentina (Alesso Exclusive Mix).flac
Track gain : -9.27 dB
Peak : 0.999969
CRC32 hash (test run) : 9485540C
CRC32 hash : 9485540C
CRC32 hash (skip zero) : 86848549
AccurateRip signature : 18C224C5
->Track not present in AccurateRip database.
Statistics
Read error : 0
Jitter error (maybe fixed) : 0
Retry sector count : 0
Damaged sector count : 0
Track 08
Filename : /Users/Shared/Rips/Various Artists - Club Life Volume One Las Vegas (Mixed by Ti‘sto) [FLAC] [2011]/08 Don't Ditch (Original Mix).flac
Track gain : -6.89 dB
Peak : 0.999969
CRC32 hash (test run) : 4C72A021
CRC32 hash : 4C72A021
CRC32 hash (skip zero) : 9EAE6CE8
AccurateRip signature : 64C7BA99
->Track not present in AccurateRip database.
Statistics
Read error : 0
Jitter error (maybe fixed) : 0
Retry sector count : 0
Damaged sector count : 0
Track 09
Filename : /Users/Shared/Rips/Various Artists - Club Life Volume One Las Vegas (Mixed by Ti‘sto) [FLAC] [2011]/09 Young At Heart (Angger Dimas Remix).flac
Track gain : -9.85 dB
Peak : 0.999969
CRC32 hash (test run) : E4E24243
CRC32 hash : E4E24243
CRC32 hash (skip zero) : 20F6201A
AccurateRip signature : 02566ACD
->Track not present in AccurateRip database.
Statistics
Read error : 0
Jitter error (maybe fixed) : 0
Retry sector count : 0
Damaged sector count : 0
Track 10
Filename : /Users/Shared/Rips/Various Artists - Club Life Volume One Las Vegas (Mixed by Ti‘sto) [FLAC] [2011]/10 Faces (Original Mix).flac
Track gain : -7.00 dB
Peak : 0.999969
CRC32 hash (test run) : 5BA60DF3
CRC32 hash : 5BA60DF3
CRC32 hash (skip zero) : D106AD8A
AccurateRip signature : 500E7AD5
->Track not present in AccurateRip database.
Statistics
Read error : 0
Jitter error (maybe fixed) : 0
Retry sector count : 0
Damaged sector count : 0
Track 11
Filename : /Users/Shared/Rips/Various Artists - Club Life Volume One Las Vegas (Mixed by Ti‘sto) [FLAC] [2011]/11 We Want Your Soul (Thomas Gold Remix).flac
Track gain : -6.90 dB
Peak : 0.999969
CRC32 hash (test run) : A825C75E
CRC32 hash : A825C75E
CRC32 hash (skip zero) : E47BBAF6
AccurateRip signature : D86C049F
->Track not present in AccurateRip database.
Statistics
Read error : 0
Jitter error (maybe fixed) : 0
Retry sector count : 0
Damaged sector count : 0
Track 12
Filename : /Users/Shared/Rips/Various Artists - Club Life Volume One Las Vegas (Mixed by Ti‘sto) [FLAC] [2011]/12 We Rock (Original Mix).flac
Track gain : -8.18 dB
Peak : 0.999969
CRC32 hash (test run) : 132F5238
CRC32 hash : 132F5238
CRC32 hash (skip zero) : F0F1CF1A
AccurateRip signature : DBCE43C9
->Track not present in AccurateRip database.
Statistics
Read error : 0
Jitter error (maybe fixed) : 0
Retry sector count : 0
Damaged sector count : 0
Track 13
Filename : /Users/Shared/Rips/Various Artists - Club Life Volume One Las Vegas (Mixed by Ti‘sto) [FLAC] [2011]/13 Zero 76 (Original Mix).flac
Track gain : -6.42 dB
Peak : 0.999969
CRC32 hash (test run) : D4625542
CRC32 hash : D4625542
CRC32 hash (skip zero) : 94F49F73
AccurateRip signature : 00560BA6
->Track not present in AccurateRip database.
Statistics
Read error : 0
Jitter error (maybe fixed) : 0
Retry sector count : 0
Damaged sector count : 0
Track 14
Filename : /Users/Shared/Rips/Various Artists - Club Life Volume One Las Vegas (Mixed by Ti‘sto) [FLAC] [2011]/14 Fire In Your New Shoes (Sultan & Ned Shepard Electric Daisy Remix).flac
Track gain : -8.37 dB
Peak : 0.999969
CRC32 hash (test run) : 316450A7
CRC32 hash : 316450A7
CRC32 hash (skip zero) : CCF9A0AF
AccurateRip signature : 165BC9C7
->Track not present in AccurateRip database.
Statistics
Read error : 0
Jitter error (maybe fixed) : 0
Retry sector count : 0
Damaged sector count : 0
Track 15
Filename : /Users/Shared/Rips/Various Artists - Club Life Volume One Las Vegas (Mixed by Ti‘sto) [FLAC] [2011]/15 C'mon (Original Mix).flac
Track gain : -8.83 dB
Peak : 0.999969
CRC32 hash (test run) : 5353D72A
CRC32 hash : 5353D72A
CRC32 hash (skip zero) : 10EE55C7
AccurateRip signature : C4FBDD8D
->Track not present in AccurateRip database.
Statistics
Read error : 0
Jitter error (maybe fixed) : 0
Retry sector count : 0
Damaged sector count : 0
No errors occurred
End of status report

Содержание индексной карты (.CUE)

TITLE "Club Life - Vol 1 - Las Vegas"
PERFORMER "Tiesto"
CATALOG 0608866689225
REM GENRE "Trance"
REM DATE "2011"
REM DISCNUMBER 1
REM TOTALDISCS 1
REM DISCID ED12460F
REM REPLAYGAIN_ALBUM_GAIN -8.53 dB
REM REPLAYGAIN_ALBUM_PEAK 0.999969
FILE "01 Now & Forever (Original Mix).wav" WAVE
TRACK 01 AUDIO
TITLE "Now & Forever (Original Mix)"
PERFORMER "Henrik B feat. Christian Г„lvestam"
SONGWRITER "Г„lvestam/Berntsson/Johansson"
REM REPLAYGAIN_TRACK_GAIN -9.29 dB
REM REPLAYGAIN_TRACK_PEAK 0.999969
INDEX 01 00:00:00
FILE "02 Blessed (Original Mix).wav" WAVE
TRACK 02 AUDIO
TITLE "Blessed (Original Mix)"
PERFORMER "Tom Hangs feat. Shermanology"
SONGWRITER "Andy Shearman/Ash Pournouri/Tim Bergling/Dorothy Shearman"
ISRC NLC281110136
REM REPLAYGAIN_TRACK_GAIN -7.36 dB
REM REPLAYGAIN_TRACK_PEAK 0.999969
INDEX 01 00:00:00
FILE "03 I Belong To You (Axel Bauer and Lanford Remix).wav" WAVE
TRACK 03 AUDIO
TITLE "I Belong To You (Axel Bauer and Lanford Remix)"
PERFORMER "Cazzi Opeia"
SONGWRITER "Moa Carlebecker Forsell/Niklas Olovson/Robin Lynch"
ISRC SE2D81000401
REM REPLAYGAIN_TRACK_GAIN -7.07 dB
REM REPLAYGAIN_TRACK_PEAK 0.999969
INDEX 01 00:00:00
FILE "04 Slumber (Original Mix).wav" WAVE
TRACK 04 AUDIO
TITLE "Slumber (Original Mix)"
PERFORMER "Steve Forte Rio feat Lindsey Ray"
SONGWRITER "Sonny Moore"
ISRC CYA111100004
REM REPLAYGAIN_TRACK_GAIN -8.76 dB
REM REPLAYGAIN_TRACK_PEAK 0.999969
INDEX 01 00:00:00
FILE "05 Girls With Bangs (Tiesto Remix).wav" WAVE
TRACK 05 AUDIO
TITLE "Girls With Bangs (Tiesto Remix)"
PERFORMER "Lune"
SONGWRITER "Linnéa Martinsson/Adrian Hynne/Carl-Michael Herlöfsson"
ISRC CYA111100007
REM REPLAYGAIN_TRACK_GAIN -8.64 dB
REM REPLAYGAIN_TRACK_PEAK 0.999969
INDEX 01 00:00:00
FILE "06 Bullets (Club Mix).wav" WAVE
TRACK 06 AUDIO
TITLE "Bullets (Club Mix)"
PERFORMER "Rebecca & Fiona"
SONGWRITER "Rebecca Scheja/Simon Yemane/Nicholas Malmstedt/Adrian Hynne"
ISRC SEVLE1100103
REM REPLAYGAIN_TRACK_GAIN -8.06 dB
REM REPLAYGAIN_TRACK_PEAK 0.999969
INDEX 01 00:00:00
FILE "07 Heiress of Valentina (Alesso Exclusive Mix).wav" WAVE
TRACK 07 AUDIO
TITLE "Heiress of Valentina (Alesso Exclusive Mix)"
PERFORMER "DГєnГ©"
SONGWRITER "DГєnГ©/Mattias Kolstrup"
ISRC DKELA1001401
REM REPLAYGAIN_TRACK_GAIN -9.27 dB
REM REPLAYGAIN_TRACK_PEAK 0.999969
INDEX 01 00:00:00
FILE "08 Don't Ditch (Original Mix).wav" WAVE
TRACK 08 AUDIO
TITLE "Don't Ditch (Original Mix)"
PERFORMER "TiГ«sto & Marcel Woods"
SONGWRITER "Tijs Michiel Verwest/Marcel Scheffers/Sjoerd Janssen/Wouter Janssen"
ISRC CYA111100005
REM REPLAYGAIN_TRACK_GAIN -6.89 dB
REM REPLAYGAIN_TRACK_PEAK 0.999969
INDEX 01 00:00:00
FILE "09 Young At Heart (Angger Dimas Remix).wav" WAVE
TRACK 09 AUDIO
TITLE "Young At Heart (Angger Dimas Remix)"
PERFORMER "Amy Meredith"
SONGWRITER "Robert Conley/Joel Chapman/Christian Lo Russo"
ISRC AUBM01000281
REM REPLAYGAIN_TRACK_GAIN -9.85 dB
REM REPLAYGAIN_TRACK_PEAK 0.999969
INDEX 01 00:00:00
FILE "10 Faces (Original Mix).wav" WAVE
TRACK 10 AUDIO
TITLE "Faces (Original Mix)"
PERFORMER "Alex Sayz"
SONGWRITER "Nick Wall/Alex Sayz"
ISRC SEYRO1100101
REM REPLAYGAIN_TRACK_GAIN -7.00 dB
REM REPLAYGAIN_TRACK_PEAK 0.999969
INDEX 01 00:00:00
FILE "11 We Want Your Soul (Thomas Gold Remix).wav" WAVE
TRACK 11 AUDIO
TITLE "We Want Your Soul (Thomas Gold Remix)"
PERFORMER "Moguai"
SONGWRITER "Moguai/Michael Bellina"
ISRC GBXGT1000130
REM REPLAYGAIN_TRACK_GAIN -6.90 dB
REM REPLAYGAIN_TRACK_PEAK 0.999969
INDEX 01 00:00:00
FILE "12 We Rock (Original Mix).wav" WAVE
TRACK 12 AUDIO
TITLE "We Rock (Original Mix)"
PERFORMER "Boys Will Be Boys"
SONGWRITER "Tijs Michiel Verwest/Sjoerd Janssen/Angger Dimas/Wouter Janssen"
ISRC CYA111100006
REM REPLAYGAIN_TRACK_GAIN -8.18 dB
REM REPLAYGAIN_TRACK_PEAK 0.999969
INDEX 01 00:00:00
FILE "13 Zero 76 (Original Mix).wav" WAVE
TRACK 13 AUDIO
TITLE "Zero 76 (Original Mix)"
PERFORMER "TiГ«sto & Hardwell"
SONGWRITER "Robbert Van De Corput/Tijs Michiel Verwest"
ISRC CYA111100001
REM REPLAYGAIN_TRACK_GAIN -6.42 dB
REM REPLAYGAIN_TRACK_PEAK 0.999969
INDEX 01 00:00:00
FILE "14 Fire In Your New Shoes (Sultan & Ned Shepard Electric Daisy Remix).wav" WAVE
TRACK 14 AUDIO
TITLE "Fire In Your New Shoes (Sultan & Ned Shepard Electric Daisy Remix)"
PERFORMER "Kaskade feat. Martina of Dragonette"
SONGWRITER "Martina Sorbara/Finna Bjarnson/Ryan Raddon/Mark Phillips"
ISRC USUS11000571
REM REPLAYGAIN_TRACK_GAIN -8.37 dB
REM REPLAYGAIN_TRACK_PEAK 0.999969
INDEX 01 00:00:00
FILE "15 C'mon (Original Mix).wav" WAVE
TRACK 15 AUDIO
TITLE "C'mon (Original Mix)"
PERFORMER "TiГ«sto vs Diplo"
SONGWRITER "Paul Devro/Olle CornГ©er/Thomas Pentz/Tijs Michiel Verwest/Derek Allen/Stefan Engblom"
ISRC US7FE0900009
REM REPLAYGAIN_TRACK_GAIN -8.83 dB
REM REPLAYGAIN_TRACK_PEAK 0.999969
INDEX 01 00:00:00

Лог проверки качества

-----------------------
DON'T MODIFY THIS FILE
-----------------------
PERFORMER: auCDtect Task Manager, ver. 1.5.1RC3 build 1.5.1.4
Copyright (c) 2008-2010 y-soft. All rights reserved
http://y-soft.org
ANALYZER: auCDtect: CD records authenticity detector, version 0.8.2
Copyright (c) 2004 Oleg Berngardt. All rights reserved.
Copyright (c) 2004 Alexander Djourik. All rights reserved.
FILE: 15 C'mon (Original Mix).flac
Size: 31271314 Hash: 0C7C982EA0E4A3F5EEEA83AF7082EF85 Accuracy: -m8
Conclusion: CDDA 100%
Signature: D677A5B8D1E9C64C97772F62F5DF9F8BFB77B0A3
FILE: 14 Fire In Your New Shoes (Sultan & Ned Shepard Electric Daisy Remix).flac
Size: 46250630 Hash: FA33232A4C4D90C316C76503CCFDEB30 Accuracy: -m8
Conclusion: CDDA 100%
Signature: 85ED7D1FB02853040E3A591C1D895C7B4DD0A231
FILE: 13 Zero 76 (Original Mix).flac
Size: 39554248 Hash: 572E2CF40F95452BFC4360EFD3125F36 Accuracy: -m8
Conclusion: CDDA 100%
Signature: A6AB7BF9DC67821A908B7DFFEB95A855AECF8550
FILE: 12 We Rock (Original Mix).flac
Size: 40930489 Hash: F42021D425FB28D80998814B87C4EFEB Accuracy: -m8
Conclusion: CDDA 100%
Signature: E6C8F0E0959CDE708C39E134575652A1BA665734
FILE: 11 We Want Your Soul (Thomas Gold Remix).flac
Size: 35705893 Hash: 56D4F1AF1175CE39E76DD92468837CBA Accuracy: -m8
Conclusion: CDDA 100%
Signature: 72432B5FDC13C46E8839984A5B0C5BBFD840B8F6
FILE: 10 Faces (Original Mix).flac
Size: 39491773 Hash: A240A943D19528DDAC45C2D0932E55F0 Accuracy: -m8
Conclusion: CDDA 100%
Signature: 153E23ACDABB7B46850C44CA8635685E4DE737BE
FILE: 09 Young At Heart (Angger Dimas Remix).flac
Size: 36111367 Hash: A83010C0773B2CC1CA8234C65C3CC4B5 Accuracy: -m8
Conclusion: CDDA 99%
Signature: 6F0EA947EE5DBB55C561F47DFB7EBC7AA355C0A8
FILE: 08 Don't Ditch (Original Mix).flac
Size: 43357414 Hash: EBE4D09437C92277886A096E63DA18B6 Accuracy: -m8
Conclusion: CDDA 100%
Signature: 589D27D4B37F6B8DC9A63B786B9624EFFBA823D3
FILE: 07 Heiress of Valentina (Alesso Exclusive Mix).flac
Size: 41625769 Hash: 057512B98BDAD485907D76D22519EB67 Accuracy: -m8
Conclusion: CDDA 100%
Signature: AA2CC0C6D006B30EFC8795B7F18319AB483F3F3A
FILE: 06 Bullets (Club Mix).flac
Size: 36133360 Hash: 9071863F566C6E3F4AF4BA0432FE2F59 Accuracy: -m8
Conclusion: CDDA 100%
Signature: 4974EE7E14114686A41B4DAE7273B7293FBB7ED5
FILE: 05 Girls With Bangs (Tiesto Remix).flac
Size: 36642591 Hash: 66D78713B42CF2B88338F6F0FD8194B7 Accuracy: -m8
Conclusion: CDDA 100%
Signature: 1470AFAD9002712170741760A4EC747DE2CE1DB3
FILE: 04 Slumber (Original Mix).flac
Size: 45087961 Hash: 01555E26AA08E800A95DCD6B3329FB0A Accuracy: -m8
Conclusion: CDDA 100%
Signature: 0E53B46CAFD021F2D5C2DB2F8F7D96C4F8C2845F
FILE: 03 I Belong To You (Axel Bauer and Lanford Remix).flac
Size: 48281111 Hash: 522879B588F7DA0AB8088F673405EA5E Accuracy: -m8
Conclusion: CDDA 100%
Signature: BDA88EB73131A7D98926ACA805A873053A46874C
FILE: 02 Blessed (Original Mix).flac
Size: 38172111 Hash: 6E3CEC9F3F7E5386CB8947181ED09862 Accuracy: -m8
Conclusion: MPEG 95%
Signature: C7D204674E438C7547E20D0135074FBE4F37A58A
FILE: 01 Now & Forever (Original Mix).flac
Size: 59361725 Hash: 770E15029F182990A0CF6DE33D4AB0C0 Accuracy: -m8
Conclusion: CDDA 100%
Signature: 8590A22D38BD4422EA0B1D8F0CACE50C034D7619
-----------------------
DON'T MODIFY THIS FILE
-----------------------
PERFORMER: auCDtect Task Manager, ver. 1.5.1RC3 build 1.5.1.4
Copyright (c) 2008-2010 y-soft. All rights reserved
http://y-soft.org
ANALYZER: auCDtect: CD records authenticity detector, version 0.8.2
Copyright (c) 2004 Oleg Berngardt. All rights reserved.
Copyright (c) 2004 Alexander Djourik. All rights reserved.
FILE: 15 C'mon (Original Mix).flac
Size: 31271314 Hash: 0C7C982EA0E4A3F5EEEA83AF7082EF85 Accuracy: -m8
Conclusion: CDDA 100%
Signature: D677A5B8D1E9C64C97772F62F5DF9F8BFB77B0A3
FILE: 14 Fire In Your New Shoes (Sultan & Ned Shepard Electric Daisy Remix).flac
Size: 46250630 Hash: FA33232A4C4D90C316C76503CCFDEB30 Accuracy: -m8
Conclusion: CDDA 100%
Signature: 85ED7D1FB02853040E3A591C1D895C7B4DD0A231
FILE: 13 Zero 76 (Original Mix).flac
Size: 39554248 Hash: 572E2CF40F95452BFC4360EFD3125F36 Accuracy: -m8
Conclusion: CDDA 100%
Signature: A6AB7BF9DC67821A908B7DFFEB95A855AECF8550
FILE: 12 We Rock (Original Mix).flac
Size: 40930489 Hash: F42021D425FB28D80998814B87C4EFEB Accuracy: -m8
Conclusion: CDDA 100%
Signature: E6C8F0E0959CDE708C39E134575652A1BA665734
FILE: 11 We Want Your Soul (Thomas Gold Remix).flac
Size: 35705893 Hash: 56D4F1AF1175CE39E76DD92468837CBA Accuracy: -m8
Conclusion: CDDA 100%
Signature: 72432B5FDC13C46E8839984A5B0C5BBFD840B8F6
FILE: 10 Faces (Original Mix).flac
Size: 39491773 Hash: A240A943D19528DDAC45C2D0932E55F0 Accuracy: -m8
Conclusion: CDDA 100%
Signature: 153E23ACDABB7B46850C44CA8635685E4DE737BE
FILE: 09 Young At Heart (Angger Dimas Remix).flac
Size: 36111367 Hash: A83010C0773B2CC1CA8234C65C3CC4B5 Accuracy: -m8
Conclusion: CDDA 99%
Signature: 6F0EA947EE5DBB55C561F47DFB7EBC7AA355C0A8
FILE: 08 Don't Ditch (Original Mix).flac
Size: 43357414 Hash: EBE4D09437C92277886A096E63DA18B6 Accuracy: -m8
Conclusion: CDDA 100%
Signature: 589D27D4B37F6B8DC9A63B786B9624EFFBA823D3
FILE: 07 Heiress of Valentina (Alesso Exclusive Mix).flac
Size: 41625769 Hash: 057512B98BDAD485907D76D22519EB67 Accuracy: -m8
Conclusion: CDDA 100%
Signature: AA2CC0C6D006B30EFC8795B7F18319AB483F3F3A
FILE: 06 Bullets (Club Mix).flac
Size: 36133360 Hash: 9071863F566C6E3F4AF4BA0432FE2F59 Accuracy: -m8
Conclusion: CDDA 100%
Signature: 4974EE7E14114686A41B4DAE7273B7293FBB7ED5
FILE: 05 Girls With Bangs (Tiesto Remix).flac
Size: 36642591 Hash: 66D78713B42CF2B88338F6F0FD8194B7 Accuracy: -m8
Conclusion: CDDA 100%
Signature: 1470AFAD9002712170741760A4EC747DE2CE1DB3
FILE: 04 Slumber (Original Mix).flac
Size: 45087961 Hash: 01555E26AA08E800A95DCD6B3329FB0A Accuracy: -m8
Conclusion: CDDA 100%
Signature: 0E53B46CAFD021F2D5C2DB2F8F7D96C4F8C2845F
FILE: 03 I Belong To You (Axel Bauer and Lanford Remix).flac
Size: 48281111 Hash: 522879B588F7DA0AB8088F673405EA5E Accuracy: -m8
Conclusion: CDDA 100%
Signature: BDA88EB73131A7D98926ACA805A873053A46874C
FILE: 02 Blessed (Original Mix).flac
Size: 38172111 Hash: 6E3CEC9F3F7E5386CB8947181ED09862 Accuracy: -m8
Conclusion: MPEG 95%
Signature: C7D204674E438C7547E20D0135074FBE4F37A58A
FILE: 01 Now & Forever (Original Mix).flac
Size: 59361725 Hash: 770E15029F182990A0CF6DE33D4AB0C0 Accuracy: -m8
Conclusion: CDDA 100%
Signature: 8590A22D38BD4422EA0B1D8F0CACE50C034D7619
Скачать

Скачать бесплатно и на максимальной скорости!

Как скачивать? · Что такое торрент? · Рейтинг и ограничения

[Профиль]  [ЛС] 

me6lex

Стаж: 10 лет

Сообщений: 125

Откуда: площадка

Пост 12-Апр-2011 19:59 (спустя 52 минуты)

[Цитировать] 

А в обычном качестве будет?

_________________
[Профиль]  [ЛС] 

dee-ma ®

Стаж: 9 лет 9 месяцев

Сообщений: 284

Откуда: A State of Trance

Пост 12-Апр-2011 20:48 (спустя 48 минут)

[Цитировать] 

А что мешает скачать это и конвертнуть в 320?
[Профиль]  [ЛС] 

me6lex

Стаж: 10 лет

Сообщений: 125

Откуда: площадка

Пост 12-Апр-2011 21:02 (спустя 14 минут)

[Цитировать] 

ну как минимум, то что я это еще не делал и хрен его знает, как это делать!

_________________
[Профиль]  [ЛС] 
Показать сообщения:    
Ответить на тему

Текущее время: Сегодня 14:27

Часовой пояс: GMT + 3



Вы не можете начинать темы
Вы не можете отвечать на сообщения
Вы не можете редактировать свои сообщения
Вы не можете удалять свои сообщения
Вы не можете голосовать в опросах
Вы не можете прикреплять файлы к сообщениям
Вы не можете скачивать файлы