(Trance) Dream Dance (Best Of 15 Years) - 2011, FLAC (image + .cue), lossless

Ответить на тему
 
Автор Сообщение

dee-ma ®

Стаж: 9 лет

Сообщений: 284

Откуда: A State of Trance

Пост 27-Июн-2011 19:06

[Цитировать] 

Dream Dance (Best Of 15 Years) Жанр: Trance
Год выпуска: 2011
Формат: FLAC (image + .cue)
Битрейт аудио: lossless
Продолжительность: 02:37:06
Released by:

Трэклист:


CD 1:
01 Chicane Feat. Moya Brennan - Saltwater (Original Mix) 03:21
02 Robert Miles Feat. Maria Nayle - One & One (Radio Version) 03:57
03 Paul Van Dyk - We Are Alive (Full On Vocal Radio Mix) 03:51
04 ATB - Let U Go (Airplay Mix) 03:28
05 Faithless - God Is A DJ (Radio Mix) 03:35
06 Blank & Jones - After Love (New Short Cut) 03:48
07 DJ Quicksilver - Free (Video Mix) 03:26
08 York - On The Beach (Radio Mix) 03:16
09 Kai Tracid - Life Is Too Short (Video Cut) 03:44
10 Tiesto - Adagio For Strings (Radio Edit) 03:26
11 DJ Shog - Running Water (Edit) 03:38
12 Rank 1 - Awakening (Radio Edit) 02:56
13 Ayla - Liebe (Single Cut)2 03:14
14 DJ Taucher - Atlantis (Radio Mix) 03:59
15 4 Strings - Take Me Away 03:12
16 Ian Van Dahl - Castles In The Sky (Radio Edit) 03:46
17 Armin Van Buuren Feat. Justine - Burned With Desire (Rising Star Vocal Mix) 03:01
18 Kyau & Albert - Outside 03:34
19 Motorcycle - As The Rush Comes 03:30
20 Marc Et Claude - I Need Your Lovin' (Dark Moon Vox Radio Edit) 03:44
21 Dance 2 Trance - Power Of American Natives (Radio Mix) 03:52
22 Jam & Spoon - Right In The Night 03:46
CD 2:
01 Safri Duo - Played -A- Live (The Bongo Song) (Radio Cut) 03:18
02 Sash! Feat. Rodriguez - Ecuador (Single Mix) 03:33
03 Brooklyn Bounce - Bass, Beats & Melody (Album Version) 03:41
04 Charly Lownoise & Mental Theo - Wonderful Days (2001 Radio Edit) 03:13
05 Cosmic Gate - Exploration Of Space (Radio Edit) 03:36
06 Darude - Sandstorm (Radio Edit) 03:46
07 Pulsedriver - Cambodia (Short Vocal Mix) 03:49
08 Mauro Picotto - Proximus (Club Video Edit) 03:32
09 DJ Sakin & Friends - Nomansland (David's Song) (Vocal Radio Cut) 03:36
10 Hypetraxx - The Darkside - (Video Cut) 02:58
11 Space Frog - (X-Ray) Follow Me (Vocal Version Video Edit) 03:43
12 Storm - Storm (Radio Mix) 03:30
13 Tomcraft - Loneliness (Video Cut) 03:54
14 Dr. Motte and Westbam - Sunshine (Short Video Version) 03:54
15 Sunbeam - Outside World (Single Edit) 03:34
16 Westbam - Celebration Generation (Edit) 03:30
17 Cosmic Baby - Loops Of Infinity (Axiomatic) 03:41
18 RMB - Redemption 06:35
19 Jens - Loops & Tings (Fruit Loops Short Edit) 04:00
20 Jones & Stephenson - The First Rebirth (Radio Edit) 04:03
21 Cherrymoon Trax - The House Of House (Original Mix) 03:37)

Отчёт EAC-CD1

Exact Audio Copy V0.99 prebeta 5 from 4. May 2009
Отчёт EAC об извлечении, выполненном 25. июня 2011, 14:09
Various / Dream Dance - Best Of 15 Years \ CD1
Дисковод: HL-DT-STDVDRAM GSA-H10A Adapter: 0 ID: 1
Режим чтения : Достоверность
Использование точного потока : Да
Отключение кэша аудио : Да
Использование указателей C2 : Нет
Коррекция смещения при чтении : 667
Способность читать области Lead-in и Lead-out : Нет
Заполнение пропущенных сэмплов тишиной : Да
Удаление блоков с тишиной в начале и конце : Нет
При вычислениях CRC использовались нулевые сэмплы : Да
Интерфейс : Встроенный Win32-интерфейс для Win NT/2000
Выходной формат : Пользовательский кодировщик
Выбранный битрейт : 768 kBit/s
Качество : Высокий
Добавление ID3-тэга : Нет
Утилита сжатия : C:\Program Files\Exact Audio Copy\FLAC\FLAC.EXE
Дополнительные параметры : -6 -V -T "ARTIST=%a" -T "TITLE=%t" -T "ALBUM=%g" -T "DATE=%y" -T "TRACKNUMBER=%n" -T "GENRE=%m" -T "COMMENT=%e" %s -o %d
TOC извлечённого CD
Трек | Старт | Длительность | Начальный сектор | Конечный сектор
---------------------------------------------------------------------
1 | 0:00.00 | 3:21.16 | 0 | 15090
2 | 3:21.16 | 3:56.74 | 15091 | 32864
3 | 7:18.15 | 3:50.37 | 32865 | 50151
4 | 11:08.52 | 3:28.26 | 50152 | 65777
5 | 14:37.03 | 3:34.59 | 65778 | 81886
6 | 18:11.62 | 3:47.38 | 81887 | 98949
7 | 21:59.25 | 3:26.08 | 98950 | 114407
8 | 25:25.33 | 3:16.16 | 114408 | 129123
9 | 28:41.49 | 3:43.58 | 129124 | 145906
10 | 32:25.32 | 3:26.14 | 145907 | 161370
11 | 35:51.46 | 3:37.52 | 161371 | 177697
12 | 39:29.23 | 2:55.52 | 177698 | 190874
13 | 42:25.00 | 3:13.72 | 190875 | 205421
14 | 45:38.72 | 3:58.56 | 205422 | 223327
15 | 49:37.53 | 3:12.06 | 223328 | 237733
16 | 52:49.59 | 3:46.03 | 237734 | 254686
17 | 56:35.62 | 3:00.62 | 254687 | 268248
18 | 59:36.49 | 3:33.58 | 268249 | 284281
19 | 63:10.32 | 3:30.04 | 284282 | 300035
20 | 66:40.36 | 3:43.70 | 300036 | 316830
21 | 70:24.31 | 3:52.13 | 316831 | 334243
22 | 74:16.44 | 3:46.19 | 334244 | 351212
Характеристики диапазона извлечения и сообщения об ошибках
Выбранный диапазон
Имя файла D:\Раздачи\Dream_Dance_Vol_10_59_1998_2011_[rutracker.org]\Dream_Dance_Best_of_15_Years_2011_[rutracker.org]\CD1\Various - Dream Dance - Best Of 15 Years CD1.wav
Пиковый уровень 100.0 %
Качество диапазона 100.0 %
CRC теста 8412DE53
CRC копии 8412DE53
Копирование... OK
Ошибок не произошло
AccurateRip: сводка
Трек 1 нет в базе данных
Трек 2 нет в базе данных
Трек 3 нет в базе данных
Трек 4 нет в базе данных
Трек 5 нет в базе данных
Трек 6 нет в базе данных
Трек 7 нет в базе данных
Трек 8 нет в базе данных
Трек 9 нет в базе данных
Трек 10 нет в базе данных
Трек 11 нет в базе данных
Трек 12 нет в базе данных
Трек 13 нет в базе данных
Трек 14 нет в базе данных
Трек 15 нет в базе данных
Трек 16 нет в базе данных
Трек 17 нет в базе данных
Трек 18 нет в базе данных
Трек 19 нет в базе данных
Трек 20 нет в базе данных
Трек 21 нет в базе данных
Трек 22 нет в базе данных
Ни одного трека нет в базе AccurateRip
Конец отчёта

Отчёт EAC-CD2

Exact Audio Copy V0.99 prebeta 5 from 4. May 2009
Отчёт EAC об извлечении, выполненном 25. июня 2011, 15:09
Various / Dream Dance - Best Of 15 Years \ CD2
Дисковод: HL-DT-STDVDRAM GSA-H10A Adapter: 0 ID: 1
Режим чтения : Достоверность
Использование точного потока : Да
Отключение кэша аудио : Да
Использование указателей C2 : Нет
Коррекция смещения при чтении : 667
Способность читать области Lead-in и Lead-out : Нет
Заполнение пропущенных сэмплов тишиной : Да
Удаление блоков с тишиной в начале и конце : Нет
При вычислениях CRC использовались нулевые сэмплы : Да
Интерфейс : Встроенный Win32-интерфейс для Win NT/2000
Выходной формат : Пользовательский кодировщик
Выбранный битрейт : 768 kBit/s
Качество : Высокий
Добавление ID3-тэга : Нет
Утилита сжатия : C:\Program Files\Exact Audio Copy\FLAC\FLAC.EXE
Дополнительные параметры : -6 -V -T "ARTIST=%a" -T "TITLE=%t" -T "ALBUM=%g" -T "DATE=%y" -T "TRACKNUMBER=%n" -T "GENRE=%m" -T "COMMENT=%e" %s -o %d
TOC извлечённого CD
Трек | Старт | Длительность | Начальный сектор | Конечный сектор
---------------------------------------------------------------------
1 | 0:00.00 | 3:18.00 | 0 | 14849
2 | 3:18.00 | 3:33.06 | 14850 | 30830
3 | 6:51.06 | 3:40.63 | 30831 | 47393
4 | 10:31.69 | 3:12.54 | 47394 | 61847
5 | 13:44.48 | 3:35.46 | 61848 | 78018
6 | 17:20.19 | 3:45.60 | 78019 | 94953
7 | 21:06.04 | 3:49.21 | 94954 | 112149
8 | 24:55.25 | 3:32.04 | 112150 | 128053
9 | 28:27.29 | 3:36.26 | 128054 | 144279
10 | 32:03.55 | 2:58.04 | 144280 | 157633
11 | 35:01.59 | 3:43.23 | 157634 | 174381
12 | 38:45.07 | 3:29.43 | 174382 | 190099
13 | 42:14.50 | 3:54.17 | 190100 | 207666
14 | 46:08.67 | 3:54.05 | 207667 | 225221
15 | 50:02.72 | 3:34.00 | 225222 | 241271
16 | 53:36.72 | 3:30.18 | 241272 | 257039
17 | 57:07.15 | 3:40.67 | 257040 | 273606
18 | 60:48.07 | 6:34.68 | 273607 | 303224
19 | 67:23.00 | 4:00.18 | 303225 | 321242
20 | 71:23.18 | 4:02.52 | 321243 | 339444
21 | 75:25.70 | 3:36.48 | 339445 | 355692
Характеристики диапазона извлечения и сообщения об ошибках
Выбранный диапазон
Имя файла D:\Раздачи\Dream_Dance_Vol_10_59_1998_2011_[rutracker.org]\Dream_Dance_Best_of_15_Years_2011_[rutracker.org]\CD2\Various - Dream Dance - Best Of 15 Years CD2.wav
Пиковый уровень 100.0 %
Качество диапазона 100.0 %
CRC теста E18FEDA5
CRC копии E18FEDA5
Копирование... OK
Ошибок не произошло
AccurateRip: сводка
Трек 1 нет в базе данных
Трек 2 нет в базе данных
Трек 3 нет в базе данных
Трек 4 нет в базе данных
Трек 5 нет в базе данных
Трек 6 нет в базе данных
Трек 7 нет в базе данных
Трек 8 нет в базе данных
Трек 9 нет в базе данных
Трек 10 нет в базе данных
Трек 11 нет в базе данных
Трек 12 нет в базе данных
Трек 13 нет в базе данных
Трек 14 нет в базе данных
Трек 15 нет в базе данных
Трек 16 нет в базе данных
Трек 17 нет в базе данных
Трек 18 нет в базе данных
Трек 19 нет в базе данных
Трек 20 нет в базе данных
Трек 21 нет в базе данных
Ни одного трека нет в базе AccurateRip
Конец отчёта
Скачать

Скачать бесплатно и на максимальной скорости!

Как скачивать? · Что такое торрент? · Рейтинг и ограничения

[Профиль]  [ЛС] 
Показать сообщения:    
Ответить на тему

Текущее время: Сегодня 15:50

Часовой пояс: GMT + 3



Вы не можете начинать темы
Вы не можете отвечать на сообщения
Вы не можете редактировать свои сообщения
Вы не можете удалять свои сообщения
Вы не можете голосовать в опросах
Вы не можете прикреплять файлы к сообщениям
Вы не можете скачивать файлы