(Melodic Death Metal / Modern Metal) Daysend - Within The Eye Of Chaos - 2010, FLAC (tracks+.cue), lossless

Ответить на тему
 
Автор Сообщение

Three7 ®

Стаж: 9 лет 7 месяцев

Сообщений: 464

Откуда: Тула

Пост 11-Май-2010 19:36

[Цитировать] 

Daysend - Within The Eye Of Chaos
Страна: Australia
Жанр: Melodic Death Metal / Modern Metal
Год выпуска: 2010
Формат: FLAC (tracks+.cue)
Битрейт аудио: lossless
Продолжительность: 00:42:30
Трэклист:
1. See You in My Nightmares (04:30)
2. Mindless (02:51)
3. The Coldest of Disasters (04:21)
4. Questions (03:53)
5. Simple Minds (04:31)
6. Without Tears (02:06)
7. In This Moment (05:10)
8. Acid Laced Fiasco (04:07)
9. Down This Hole (04:15)
10. Edge of the Line (04:30)
11. Recoil (02:15)

log

X Lossless Decoder version 20100218 (116.4)
XLD extraction logfile from 2010-02-19 23:15:21 +1100
Daysend / Within The Eye Of Chaos
Used drive : MATSHITA CD-RW CW-8221 (revision GA0K)
Use cdparanoia mode : YES (CDParanoia III 10.2 engine)
Disable audio cache : OK for the drive with cache less than 2750KB
Make use of C2 pointers : NO
Read offset correction : 102
Max retry count : 100
TOC of the extracted CD
Track | Start | Length | Start sector | End sector
---------------------------------------------------------
1 | 00:00:00 | 04:30:11 | 0 | 20260
2 | 04:30:11 | 02:51:28 | 20261 | 33113
3 | 07:21:39 | 04:21:13 | 33114 | 52701
4 | 11:42:52 | 03:53:19 | 52702 | 70195
5 | 15:35:71 | 04:31:05 | 70196 | 90525
6 | 20:07:01 | 02:06:15 | 90526 | 99990
7 | 22:13:16 | 05:09:58 | 99991 | 123223
8 | 27:22:74 | 04:06:64 | 123224 | 141737
9 | 31:29:63 | 04:15:35 | 141738 | 160897
10 | 35:45:23 | 04:30:37 | 160898 | 181184
11 | 40:15:60 | 02:14:65 | 181185 | 191299
Track 01
Filename : /Users/jtrainor/Desktop/01 - See You In My Nightmares.flac
Pre-gap length : 00:02:00
CRC32 hash (test run) : C3A3410F
CRC32 hash : C3A3410F
CRC32 hash (skip zero) : 44779A98
AccurateRip signature : ACA27359
->Track not present in AccurateRip database.
Statistics
Read error : 0
Skipped (treated as error) : 0
Edge jitter error (maybe fixed) : 0
Atom jitter error (maybe fixed) : 0
Drift error (maybe fixed) : 0
Dropped bytes error (maybe fixed) : 0
Duplicated bytes error (maybe fixed) : 0
Inconsistency in error sectors : 0
Track 02
Filename : /Users/jtrainor/Desktop/02 - Mindless.flac
CRC32 hash (test run) : 8A6C9E20
CRC32 hash : 8A6C9E20
CRC32 hash (skip zero) : 6726341F
AccurateRip signature : B54FC9C0
->Track not present in AccurateRip database.
Statistics
Read error : 0
Skipped (treated as error) : 0
Edge jitter error (maybe fixed) : 0
Atom jitter error (maybe fixed) : 0
Drift error (maybe fixed) : 0
Dropped bytes error (maybe fixed) : 0
Duplicated bytes error (maybe fixed) : 0
Inconsistency in error sectors : 0
Track 03
Filename : /Users/jtrainor/Desktop/03 - The Coldest Of Disasters.flac
CRC32 hash (test run) : 1DBA5645
CRC32 hash : 1DBA5645
CRC32 hash (skip zero) : 0D761436
AccurateRip signature : 4A3D4CFE
->Track not present in AccurateRip database.
Statistics
Read error : 0
Skipped (treated as error) : 0
Edge jitter error (maybe fixed) : 0
Atom jitter error (maybe fixed) : 0
Drift error (maybe fixed) : 0
Dropped bytes error (maybe fixed) : 0
Duplicated bytes error (maybe fixed) : 0
Inconsistency in error sectors : 0
Track 04
Filename : /Users/jtrainor/Desktop/04 - Questions.flac
CRC32 hash (test run) : D0AE2CF7
CRC32 hash : D0AE2CF7
CRC32 hash (skip zero) : 72764484
AccurateRip signature : 07EFED4D
->Track not present in AccurateRip database.
Statistics
Read error : 0
Skipped (treated as error) : 0
Edge jitter error (maybe fixed) : 0
Atom jitter error (maybe fixed) : 0
Drift error (maybe fixed) : 0
Dropped bytes error (maybe fixed) : 0
Duplicated bytes error (maybe fixed) : 0
Inconsistency in error sectors : 0
Track 05
Filename : /Users/jtrainor/Desktop/05 - Simple Minds.flac
CRC32 hash (test run) : 814CAC17
CRC32 hash : 814CAC17
CRC32 hash (skip zero) : 7D32C308
AccurateRip signature : 1A0F6F9B
->Track not present in AccurateRip database.
Statistics
Read error : 0
Skipped (treated as error) : 0
Edge jitter error (maybe fixed) : 0
Atom jitter error (maybe fixed) : 0
Drift error (maybe fixed) : 0
Dropped bytes error (maybe fixed) : 0
Duplicated bytes error (maybe fixed) : 0
Inconsistency in error sectors : 0
Track 06
Filename : /Users/jtrainor/Desktop/06 - Without Tears.flac
Pre-gap length : 00:02:08
CRC32 hash (test run) : 87A579CF
CRC32 hash : 87A579CF
CRC32 hash (skip zero) : B79DCDEE
AccurateRip signature : A968347B
->Track not present in AccurateRip database.
Statistics
Read error : 0
Skipped (treated as error) : 0
Edge jitter error (maybe fixed) : 0
Atom jitter error (maybe fixed) : 0
Drift error (maybe fixed) : 0
Dropped bytes error (maybe fixed) : 0
Duplicated bytes error (maybe fixed) : 0
Inconsistency in error sectors : 0
Track 07
Filename : /Users/jtrainor/Desktop/07 - In This Moment.flac
CRC32 hash (test run) : 7936738E
CRC32 hash : 7936738E
CRC32 hash (skip zero) : 8B095AEB
AccurateRip signature : 08CA44AA
->Track not present in AccurateRip database.
Statistics
Read error : 0
Skipped (treated as error) : 0
Edge jitter error (maybe fixed) : 0
Atom jitter error (maybe fixed) : 0
Drift error (maybe fixed) : 0
Dropped bytes error (maybe fixed) : 0
Duplicated bytes error (maybe fixed) : 0
Inconsistency in error sectors : 0
Track 08
Filename : /Users/jtrainor/Desktop/08 - Acid Laced Fiasco.flac
Pre-gap length : 00:01:29
CRC32 hash (test run) : 55C7E88C
CRC32 hash : 55C7E88C
CRC32 hash (skip zero) : FF711542
AccurateRip signature : 7E7071BD
->Track not present in AccurateRip database.
Statistics
Read error : 0
Skipped (treated as error) : 0
Edge jitter error (maybe fixed) : 0
Atom jitter error (maybe fixed) : 0
Drift error (maybe fixed) : 0
Dropped bytes error (maybe fixed) : 0
Duplicated bytes error (maybe fixed) : 0
Inconsistency in error sectors : 0
Track 09
Filename : /Users/jtrainor/Desktop/09 - Down This Hole.flac
CRC32 hash (test run) : AA09D841
CRC32 hash : AA09D841
CRC32 hash (skip zero) : DF0AFA20
AccurateRip signature : E14033C1
->Track not present in AccurateRip database.
Statistics
Read error : 0
Skipped (treated as error) : 0
Edge jitter error (maybe fixed) : 0
Atom jitter error (maybe fixed) : 0
Drift error (maybe fixed) : 0
Dropped bytes error (maybe fixed) : 0
Duplicated bytes error (maybe fixed) : 0
Inconsistency in error sectors : 0
Track 10
Filename : /Users/jtrainor/Desktop/10 - Edge Of The Line.flac
CRC32 hash (test run) : 6D2EB552
CRC32 hash : 6D2EB552
CRC32 hash (skip zero) : 57EAF161
AccurateRip signature : 1E2F6449
->Track not present in AccurateRip database.
Statistics
Read error : 0
Skipped (treated as error) : 0
Edge jitter error (maybe fixed) : 0
Atom jitter error (maybe fixed) : 0
Drift error (maybe fixed) : 0
Dropped bytes error (maybe fixed) : 0
Duplicated bytes error (maybe fixed) : 0
Inconsistency in error sectors : 0
Track 11
Filename : /Users/jtrainor/Desktop/11 - Recoil.flac
CRC32 hash (test run) : 6A26811D
CRC32 hash : 6A26811D
CRC32 hash (skip zero) : 7D932732
AccurateRip signature : E1ED92A5
->Track not present in AccurateRip database.
Statistics
Read error : 0
Skipped (treated as error) : 0
Edge jitter error (maybe fixed) : 0
Atom jitter error (maybe fixed) : 0
Drift error (maybe fixed) : 0
Dropped bytes error (maybe fixed) : 0
Duplicated bytes error (maybe fixed) : 0
Inconsistency in error sectors : 0
No errors occurred
End of status report
Скачать

Скачать бесплатно и на максимальной скорости!

Как скачивать? · Что такое торрент? · Рейтинг и ограничения

[Профиль]  [ЛС] 
Показать сообщения:    
Ответить на тему

Текущее время: Сегодня 18:58

Часовой пояс: GMT + 3



Вы не можете начинать темы
Вы не можете отвечать на сообщения
Вы не можете редактировать свои сообщения
Вы не можете удалять свои сообщения
Вы не можете голосовать в опросах
Вы не можете прикреплять файлы к сообщениям
Вы не можете скачивать файлы