(Melodic Death Metal) Dark Tranquillity - We are the Void (Limited Edition) - 2010, FLAC (tracks+.cue), lossless

Ответить на тему
 
Автор Сообщение

Three7 ®

Стаж: 9 лет 7 месяцев

Сообщений: 464

Откуда: Тула

Пост 11-Май-2010 19:37

[Цитировать] 

Dark Tranquillity - We are the Void (Limited Edition)
Страна: Sweden
Жанр: Melodic Death Metal
Год выпуска: 2010
Формат: FLAC (tracks+.cue)
Битрейт аудио: lossless
Продолжительность: 00:53:46
Трэклист:
01. Shadow in Our Blood
02. Dream Oblivion
03. The Fatalist
04. In My Absence
05. The Grandest Accusation
06. At the Point of Ignition
07. Her Silent Language
08. Arkhangelsk
09. I Am the Void
10. Surface the Infinite
11. Iridium
12. Star of Nothingness
13. To Where Fires Cannot Feed

log EAC

Exact Audio Copy V0.99 prebeta 5 from 4. May 2009
EAC extraction logfile from 25. February 2010, 17:24
Dark Tranquillity / We Are The Void
Used drive : SAMSUNG CDRW/DVD SM-352B Adapter: 0 ID: 0
Read mode : Secure
Utilize accurate stream : Yes
Defeat audio cache : Yes
Make use of C2 pointers : No
Read offset correction : 6
Overread into Lead-In and Lead-Out : No
Fill up missing offset samples with silence : Yes
Delete leading and trailing silent blocks : No
Null samples used in CRC calculations : Yes
Used interface : Native Win32 interface for Win NT & 2000
Gap handling : Appended to previous track
Used output format : User Defined Encoder
Selected bitrate : 192 kBit/s
Quality : High
Add ID3 tag : No
Command line compressor : C:\Program Files (x86)\Exact Audio Copy\Flac\flac.exe
Additional command line options : -V -8 -T "artist=%a" -T "title=%t" -T "album=%g" -T "date=%y" -T "tracknumber=%n" -T "genre=%m" %s
TOC of the extracted CD
Track | Start | Length | Start sector | End sector
---------------------------------------------------------
1 | 0:00.00 | 3:46.49 | 0 | 16998
2 | 3:46.49 | 3:48.43 | 16999 | 34141
3 | 7:35.17 | 4:32.26 | 34142 | 54567
4 | 12:07.43 | 4:46.53 | 54568 | 76070
5 | 16:54.21 | 4:55.14 | 76071 | 98209
6 | 21:49.35 | 3:52.31 | 98210 | 115640
7 | 25:41.66 | 3:33.44 | 115641 | 131659
8 | 29:15.35 | 3:56.52 | 131660 | 149411
9 | 33:12.12 | 3:59.71 | 149412 | 167407
10 | 37:12.08 | 3:50.35 | 167408 | 184692
11 | 41:02.43 | 6:43.21 | 184693 | 214938
12 | 47:45.64 | 2:07.33 | 214939 | 224496
13 | 49:53.22 | 3:52.72 | 224497 | 241968
Track 1
Filename C:\Waffles\Dark Tranquillity\We Are The Void (FLAC)\01-Dark Tranquillity-Shadow in Our Blood.wav
Pre-gap length 0:00:02.00
Peak level 98.7 %
Track quality 100.0 %
Test CRC 11268F23
Copy CRC 11268F23
Track not present in AccurateRip database
Copy OK
Track 2
Filename C:\Waffles\Dark Tranquillity\We Are The Void (FLAC)\02-Dark Tranquillity-Dream Oblivion.wav
Peak level 98.7 %
Track quality 100.0 %
Test CRC E46D5F76
Copy CRC E46D5F76
Track not present in AccurateRip database
Copy OK
Track 3
Filename C:\Waffles\Dark Tranquillity\We Are The Void (FLAC)\03-Dark Tranquillity-The Fatalist.wav
Peak level 98.7 %
Track quality 100.0 %
Test CRC B2741968
Copy CRC B2741968
Track not present in AccurateRip database
Copy OK
Track 4
Filename C:\Waffles\Dark Tranquillity\We Are The Void (FLAC)\04-Dark Tranquillity-In My Absence.wav
Peak level 98.7 %
Track quality 100.0 %
Test CRC 03D2CC2B
Copy CRC 03D2CC2B
Track not present in AccurateRip database
Copy OK
Track 5
Filename C:\Waffles\Dark Tranquillity\We Are The Void (FLAC)\05-Dark Tranquillity-The Grandest Accusation.wav
Peak level 98.7 %
Track quality 99.9 %
Test CRC 154A8C0D
Copy CRC 154A8C0D
Track not present in AccurateRip database
Copy OK
Track 6
Filename C:\Waffles\Dark Tranquillity\We Are The Void (FLAC)\06-Dark Tranquillity-At the Point of Ignition.wav
Peak level 98.7 %
Track quality 99.9 %
Test CRC B1E65745
Copy CRC B1E65745
Track not present in AccurateRip database
Copy OK
Track 7
Filename C:\Waffles\Dark Tranquillity\We Are The Void (FLAC)\07-Dark Tranquillity-Her Silent Language.wav
Peak level 98.7 %
Track quality 100.0 %
Test CRC 1909AE62
Copy CRC 1909AE62
Track not present in AccurateRip database
Copy OK
Track 8
Filename C:\Waffles\Dark Tranquillity\We Are The Void (FLAC)\08-Dark Tranquillity-Arkhangelsk.wav
Peak level 98.7 %
Track quality 100.0 %
Test CRC 86957500
Copy CRC 86957500
Track not present in AccurateRip database
Copy OK
Track 9
Filename C:\Waffles\Dark Tranquillity\We Are The Void (FLAC)\09-Dark Tranquillity-I Am the Void.wav
Pre-gap length 0:00:00.62
Peak level 98.7 %
Track quality 100.0 %
Test CRC AFB52D9A
Copy CRC AFB52D9A
Track not present in AccurateRip database
Copy OK
Track 10
Filename C:\Waffles\Dark Tranquillity\We Are The Void (FLAC)\10-Dark Tranquillity-Surface the Infinite.wav
Peak level 98.7 %
Track quality 99.9 %
Test CRC 4692786B
Copy CRC 4692786B
Track not present in AccurateRip database
Copy OK
Track 11
Filename C:\Waffles\Dark Tranquillity\We Are The Void (FLAC)\11-Dark Tranquillity-Iridium.wav
Pre-gap length 0:00:00.72
Peak level 98.7 %
Track quality 100.0 %
Test CRC 77638796
Copy CRC 77638796
Track not present in AccurateRip database
Copy OK
Track 12
Filename C:\Waffles\Dark Tranquillity\We Are The Void (FLAC)\12-Dark Tranquillity-Star of Nothingness.wav
Peak level 74.5 %
Track quality 100.0 %
Test CRC 39C77FF4
Copy CRC 39C77FF4
Track not present in AccurateRip database
Copy OK
Track 13
Filename C:\Waffles\Dark Tranquillity\We Are The Void (FLAC)\13-Dark Tranquillity-To Where Fires Cannot Feed.wav
Peak level 98.7 %
Track quality 100.0 %
Test CRC 67F6C04B
Copy CRC 67F6C04B
Track not present in AccurateRip database
Copy OK
None of the tracks are present in the AccurateRip database
No errors occurred
End of status report
Скачать

Скачать бесплатно и на максимальной скорости!

Как скачивать? · Что такое торрент? · Рейтинг и ограничения

[Профиль]  [ЛС] 
Показать сообщения:    
Ответить на тему

Текущее время: Сегодня 18:57

Часовой пояс: GMT + 3



Вы не можете начинать темы
Вы не можете отвечать на сообщения
Вы не можете редактировать свои сообщения
Вы не можете удалять свои сообщения
Вы не можете голосовать в опросах
Вы не можете прикреплять файлы к сообщениям
Вы не можете скачивать файлы