(Thrash Metal) Дискография Metallica (1982-2008) - WAV, FLAC, APE (image + .cue), lossless

Ответить на тему
 
Автор Сообщение

masterrr ®

Стаж: 9 лет 7 месяцев

Сообщений: 1

Пост 12-Май-2010 10:45

[Цитировать] 

Дискография Metallica (1982-2008) Жанр: Thrash Metal
Формат: WAV, FLAC, APE (image + .cue)
Битрейт аудио: lossless

Альбомы, синглы и EP

1982 No Life 'til Leather

1. Motorbreath
2. The Mechanix
3. Jump In The Fire
4. Seek And Destroy
5. Phantom Lord
6. Metal Militia
7. Hit The Lights
8. Hit The Lights
9. The Mechanix
10. Motorbreath
11. Jump In The Fire
12. Whiplash
13. No Remorse
14. Hit The Lights

Info

Notes: Apparently these recordings came from a 1st-2nd gen of Lars' master 3/4" reel, at least thats what the rumor is and who wouldn't agree? The quality on these demos is amazing and is the best you probably will ever find in the un-official environment. The track order is also correct here. The Whiplash-No Remorse demos are the only recordings featuring Dave and Cliff together.
14. Hit The Lights
This is the very first Metallica recording & was recorded in 1981.
This version of this song has LLoyd Grant on lead guitar, James Hetfield on rhythm guitar and bass & Lars Ulrich on Drums.
Track 14 was added to this cd by hndsmepete of the Zomb Tracker.
http://zombtracker.the-zomb.com

1983 Kill'em All (1988 Reissue)

1. Hit the Lights
2. The Four Horsemen
3. Motorbreath
4. Jump in the Fire
5. Pulling Teeth
6. Whiplash
7. Phantom Lord
8. No Remorse
9. Seek & Destroy
10.Metal Militia
11. Am I Evil?
12. Blitzkrieg

Лог

EAC extraction logfile from 25. June 2007, 0:13 for CD
Metallica / Kill 'Em All (with Bonus Tracks)
Used drive : SONY CD-RW CRX225E Adapter: 0 ID: 1
Read mode : Secure with NO C2, accurate stream, disable cache
Read offset correction : 6
Overread into Lead-In and Lead-Out : No
Used output format : C:\Archivos de programa\Exact Audio Copy\FLAC.EXE (User Defined Encoder)
32 kBit/s
Additional command line options : -6 -V -T "artist=%a" -T "title=%t" -T "album=%g" -T "date=%y" -T "tracknumber=%n" -T "genre=%m" -T "comment=EAC 0.9beta4 / FLAC 1.1.0 q6" %s
Other options :
Fill up missing offset samples with silence : Yes
Delete leading and trailing silent blocks : No
Native Win32 interface for Win NT & 2000
Range status and errors
Selected range
Filename D:\MMT\METALLICA [1983-1988] [CD] KILL EM ALL (with Bonus Tracks) [EAC-FLAC] BY APHET [MeTaLMaDNeSS.TeaM]\Kill'Em All.FLAC.wav
Peak level 100.0 %
Range quality 100.0 %
CRC 2C15689C
Copy OK
No errors occured
End of status report

1983 Kill'em All (2006 Japaneese Reissue)

1. Hit the Lights
2. The Four Horsemen
3. Motorbreath
4. Jump in the Fire
5. Pulling Teeth
6. Whiplash
7. Phantom Lord
8. No Remorse
9. Seek & Destroy
10.Metal Militia
11. Am I Evil?
12. Blitzkrieg

1984 Ride The Lightning

1. Fight Fire With Fire
2. Ride The Lightning
3. For Whom The Bells Tolls
4. Fade To Black
5. Trapped Under Ice
6. Escape
7. Creeping Death
8. The Call of Ktulu

Лог

EAC extraction logfile from 7. August 2004, 12:34 for CD
Metallica / Ride The Lightning
Used drive : LITE-ON LTR-52327S Adapter: 4 ID: 0
Read mode : Secure with NO C2, accurate stream, disable cache
Combined read/write offset correction : 0
Overread into Lead-In and Lead-Out : No
Used output format : C:\Program Files\Monkey's Audio\MAC.exe (Monkey's Audio Lossless Encoder)
Extra High Lossless Compression
Additional command line options : %l--alt-preset 128%l%h--alt-preset standard%h %s %d
Other options :
Fill up missing offset samples with silence : Yes
Delete leading and trailing silent blocks : No
Native Win32 interface for Win NT & 2000
Range status and errors
Selected range
Filename C:\Jani Musa\Metallica [1984] [CD] Ride The Lightning [EAC-APE] by Kreator.est [MeTaLMaDNeSS.TeaM]\CDImage.wav
Peak level 100.0 %
Range quality 100.0 %
CRC EA8F613E
Copy OK
No errors occured
End of status report

1984 Ride the Lightning (2000 DCC 24K Gold Remastered)

1. Fight Fire With Fire
2. Ride The Lightning
3. For Whom The Bells Tolls
4. Fade To Black
5. Trapped Under Ice
6. Escape
7. Creeping Death
8. The Call of Ktulu

1984 Ride the Lightning (2006 Japaneese Reissue)

1. Fight Fire With Fire
2. Ride The Lightning
3. For Whom The Bells Tolls
4. Fade To Black
5. Trapped Under Ice
6. Escape
7. Creeping Death
8. The Call of Ktulu

Лог

Exact Audio Copy V0.99 prebeta 3 from 28. July 2007
EAC extraction logfile from 13. October 2007, 10:44
Metallica / Ride The Lightning [Japan]
Used drive : PLEXTOR CD-R PREMIUM Adapter: 5 ID: 1
Read mode : Secure
Utilize accurate stream : Yes
Defeat audio cache : Yes
Make use of C2 pointers : No
Read offset correction : 30
Overread into Lead-In and Lead-Out : Yes
Fill up missing offset samples with silence : Yes
Delete leading and trailing silent blocks : No
Null samples used in CRC calculations : Yes
Used interface : Installed external ASPI interface
Used output format : Internal WAV Routines
Sample format : 44.100 Hz; 16 Bit; Stereo
TOC of the extracted CD
Track | Start | Length | Start sector | End sector
---------------------------------------------------------
1 | 0:00.33 | 4:44.67 | 33 | 21399
2 | 4:45.25 | 6:37.55 | 21400 | 51229
3 | 11:23.05 | 5:11.15 | 51230 | 74569
4 | 16:34.20 | 6:55.13 | 74570 | 105707
5 | 23:29.33 | 4:04.30 | 105708 | 124037
6 | 27:33.63 | 4:24.22 | 124038 | 143859
7 | 31:58.10 | 6:36.13 | 143860 | 173572
8 | 38:34.23 | 8:55.15 | 173573 | 213712
Range status and errors
Selected range
Filename G:\~~##~~CLONES~~##~~\Metallica - Ride The Lightning [Japan].wav
Peak level 100.0 %
Range quality 100.0 %
Test CRC 632B835A
Copy CRC 632B835A
Copy OK
No errors occurred
End of status report

1986 Master of Puppets

Лог

[/spoiEAC extraction logfile from 31. January 2004, 14:15 for CD
Metallica / Master of Puppets
Used drive : ASUS DVD-E616P Adapter: 1 ID: 1
Read mode : Secure with NO C2, accurate stream, disable cache
Read offset correction : 0
Overread into Lead-In and Lead-Out : No
Used output format : Internal WAV Routines
44.100 Hz; 16 Bit; Stereo
Other options :
Fill up missing offset samples with silence : Yes
Delete leading and trailing silent blocks : No
Installed external ASPI interface
Range status and errors
Selected range
Filename D:\metallica\ape\CDImage.wav
Peak level 100.0 %
Range quality 100.0 %
CRC 0ECE985B
Copy OK
No errors occured
End of status reportler]

1986 Master of Puppets (2000 DCC 24K Gold Remastered)

1 Battery
2 Master of Puppets
3 The Thing That Should Not Be
4 Welcome Home (Sanitarium)
5 Disposable Heroes
6 Leper Messiah
7 Orion
8 Damage, Inc.

1986 Master of Puppets (2006 Japaneese Reissue)

1 Battery
2 Master of Puppets
3 The Thing That Should Not Be
4 Welcome Home (Sanitarium)
5 Disposable Heroes
6 Leper Messiah
7 Orion
8 Damage, Inc.

Лог

Exact Audio Copy V0.99 prebeta 3 from 28. July 2007
EAC extraction logfile from 13. October 2007, 11:03
Metallica / Master Of Puppets [Japan]
Used drive : PLEXTOR CD-R PREMIUM Adapter: 5 ID: 1
Read mode : Secure
Utilize accurate stream : Yes
Defeat audio cache : Yes
Make use of C2 pointers : No
Read offset correction : 30
Overread into Lead-In and Lead-Out : Yes
Fill up missing offset samples with silence : Yes
Delete leading and trailing silent blocks : No
Null samples used in CRC calculations : Yes
Used interface : Installed external ASPI interface
Used output format : Internal WAV Routines
Sample format : 44.100 Hz; 16 Bit; Stereo
TOC of the extracted CD
Track | Start | Length | Start sector | End sector
---------------------------------------------------------
1 | 0:00.33 | 5:12.42 | 33 | 23474
2 | 5:13.00 | 8:35.18 | 23475 | 62117
3 | 13:48.18 | 6:36.12 | 62118 | 91829
4 | 20:24.30 | 6:27.03 | 91830 | 120857
5 | 26:51.33 | 8:16.47 | 120858 | 158104
6 | 35:08.05 | 5:40.00 | 158105 | 183604
7 | 40:48.05 | 8:27.23 | 183605 | 221652
8 | 49:15.28 | 5:32.20 | 221653 | 246572
Range status and errors
Selected range
Filename G:\~~##~~CLONES~~##~~\Metallica - Master Of Puppets [Japan].wav
Peak level 100.0 %
Range quality 100.0 %
Test CRC 8FACD253
Copy CRC 8FACD253
Copy OK
No errors occurred
End of status report

1987 The $5.98 E.P. Garage Days Re-Revisited

1 Helpless
2 The Small Hours
3 The Wait
4 Crash Course In Brain Surgery
5 Last Caress / Green Hell

1988 ... And Justice For All (Gold Edition)

1. Blackened
2. And Justice For All
3. Eye Of The Beholder
4. One
5. The Shortest Straw
6. Harvester Of Sorrow
7. The Frayed Ends Of Sanity
8. To Live Is To Die
9. Dyers Eve
10. The Prince

1988 ... And Justice For All (Japaneese Edition)

1. Blackened
2. And Justice For All
3. Eye Of The Beholder
4. One
5. The Shortest Straw
6. Harvester Of Sorrow
7. The Frayed Ends Of Sanity
8. To Live Is To Die
9. Dyers Eve
10. The Prince

Лог

EAC extraction logfile from 20. January 2006, 14:13 for CD
Metallica / ...And Justice For All (Japanese Import)
Used drive : PLEXTOR CD-R PREMIUM Adapter: 1 ID: 0
Read mode : Secure with NO C2, accurate stream, disable cache
Read offset correction : 30
Overread into Lead-In and Lead-Out : No
Used output format : C:\Archivos de programa\EAC 0.95 beta3\flac.exe (User Defined Encoder)
128 kBit/s
Additional command line options : -6 -V -T "artist=%a" -T "title=%t" -T "album=%g" -T "date=%y" -T "tracknumber=%n" -T "genre=%m" -T "comment=EAC 0.95beta3 / FLAC 1.1.2" %s
Other options :
Fill up missing offset samples with silence : Yes
Delete leading and trailing silent blocks : No
Installed external ASPI interface
Range status and errors
Selected range
Filename C:\Metallica - ...And Justice For All (Japanese Import).flac.wav
Peak level 99.9 %
Range quality 99.9 %
CRC 06A6F10F
Copy OK
No errors occured
End of status report

1988 ...And Justice for All (2006 Japaneese Reissue)

1. Blackened
2. And Justice For All
3. Eye Of The Beholder
4. One
5. The Shortest Straw
6. Harvester Of Sorrow
7. The Frayed Ends Of Sanity
8. To Live Is To Die
9. Dyers Eve

Лог

Exact Audio Copy V0.99 prebeta 3 from 28. July 2007
EAC extraction logfile from 17. October 2007, 10:29
Metallica / ...And Justice For All [Japan]
Used drive : PLEXTOR CD-R PREMIUM Adapter: 0 ID: 0
Read mode : Secure
Utilize accurate stream : Yes
Defeat audio cache : Yes
Make use of C2 pointers : No
Read offset correction : 30
Overread into Lead-In and Lead-Out : Yes
Fill up missing offset samples with silence : Yes
Delete leading and trailing silent blocks : No
Null samples used in CRC calculations : Yes
Used interface : Installed external ASPI interface
Used output format : Internal WAV Routines
Sample format : 44.100 Hz; 16 Bit; Stereo
TOC of the extracted CD
Track | Start | Length | Start sector | End sector
---------------------------------------------------------
1 | 0:00.00 | 6:42.35 | 0 | 30184
2 | 6:42.35 | 9:45.60 | 30185 | 74119
3 | 16:28.20 | 6:25.67 | 74120 | 103061
4 | 22:54.12 | 7:26.18 | 103062 | 136529
5 | 30:20.30 | 6:35.25 | 136530 | 166179
6 | 36:55.55 | 5:45.35 | 166180 | 192089
7 | 42:41.15 | 7:43.35 | 192090 | 226849
8 | 50:24.50 | 9:48.60 | 226850 | 271009
9 | 60:13.35 | 5:16.57 | 271010 | 294766
10 | 65:30.17 | 4:25.13 | 294767 | 314654
Range status and errors
Selected range
Filename G:\~~##~~CLONES~~##~~\Metallica - ...And Justice For All [Japan].wav
Peak level 99.5 %
Range quality 100.0 %
Test CRC 2FF23321
Copy CRC 2FF23321
Copy OK
No errors occurred
End of status report

1988 One (CDS)

1. One
2. Breadfan
3. For Whom The Bell Tolls (Live)
4. Welcome Home (Sanitarium) (Live)
5. One (Demo)

1990 Creeping Death - Jump in the Fire (EP)

1 Creeping Death
2 Am I Evil ?
3 Blitzkrieg
4 Jump In The Fire
5 Seek And Destroy
6 Phantom Lord

1990 One Last Visit (Garage '82)

1. Hit The Lights
2. The Mechanix
3. Motorbreath
4. Jump In The Fire
5. Seek And Destroy
6. Metal Militia
7. Phantom Lord
8. Killing Time
9. Let It Lose

1991 Enter Sandman (CDS)

1. Enter Sandman
2. Stone Cold Crazy
3. Enter Sandman (Demo)

1991 Metallica

1. Enter Sandman
2. Sad But True
3. Holier Than Thou
4. The Unforgiven
5. Wherever I May Roam
6. Don't Tread On Me
7. Through The Never
8. Nothing Else Matters
9. Of Wolf And Man
10. The God That Failed
11. My Friend Of Misery
12. The Struggle Within

Лог

Exact Audio Copy V0.99 prebeta 2 from 28. July 2007
EAC extraction logfile from 10. December 2007, 21:53
Metallica / Metallica
Used drive : Optiarc DVD RW AD-5170A Adapter: 4 ID: 0
Read mode : Secure
Utilize accurate stream : Yes
Defeat audio cache : Yes
Make use of C2 pointers : No
Read offset correction : 48
Overread into Lead-In and Lead-Out : No
Fill up missing offset samples with silence : Yes
Delete leading and trailing silent blocks : No
Null samples used in CRC calculations : Yes
Used interface : Native Win32 interface for Win NT & 2000
Used output format : Internal WAV Routines
Sample format : 44.100 Hz; 16 Bit; Stereo
TOC of the extracted CD
Track | Start | Length | Start sector | End sector
---------------------------------------------------------
1 | 0:00.00 | 5:31.38 | 0 | 24862
2 | 5:31.38 | 5:24.57 | 24863 | 49219
3 | 10:56.20 | 3:47.48 | 49220 | 66292
4 | 14:43.68 | 6:27.07 | 66293 | 95324
5 | 21:11.00 | 6:44.15 | 95325 | 125639
6 | 27:55.15 | 4:00.25 | 125640 | 143664
7 | 31:55.40 | 4:04.28 | 143665 | 161992
8 | 35:59.68 | 6:28.57 | 161993 | 191149
9 | 42:28.50 | 4:16.40 | 191150 | 210389
10 | 46:45.15 | 5:08.40 | 210390 | 233529
11 | 51:53.55 | 6:49.50 | 233530 | 264254
12 | 58:43.30 | 3:53.68 | 264255 | 281797
Range status and errors
Selected range
Filename E:\Music\Metallica\1991 Metallica\Metallica - Metallica.wav
Peak level 100.0 %
Range quality 99.9 %
Copy CRC F63A3323
Copy OK
No errors occurred
End of status report

1991 Metallica (2006 Japaneese Reissue)

1. Enter Sandman
2. Sad But True
3. Holier Than Thou
4. The Unforgiven
5. Wherever I May Roam
6. Don't Tread On Me
7. Through The Never
8. Nothing Else Matters
9. Of Wolf And Man
10. The God That Failed
11. My Friend Of Misery
12. The Struggle Within

1993 Live Shit - Binge and Purge

Disc 1
1. Enter Sandman
2. Creeping Death
3. Harvester Of Sorrow
4. Welcome Home (Sanitarium)
5. Sad But True
6. Of Wolf And Man
7. The Unforgiven
8. Justice Medley: Eye Of The Beholder/Blackened/The Frayed Ends Of Sanity/...And Justice For All
Disc 2
1. Through The Never
2. For Whom The Bell Tolls
3. Fade To Black
4. Master Of Puppets
5. Seek And Destroy
6. Whiplash
Disc 3
1. Nothing Else Matters
2. Wherever I May Roam
3. Am I Evil?
4. Last Caress
5. One
6. Battery
7. The Four Horsemen
8. Motorbreath
9. Stone Cold Crazy

Лог CD1

Exact Audio Copy V0.99 prebeta 2 from 28. July 2007
EAC extraction logfile from 15. December 2007, 21:15
Metallica / Live Shit: Binge & Purge (Mexico City Disc 1)
Used drive : Optiarc DVD RW AD-5170A Adapter: 4 ID: 0
Read mode : Secure
Utilize accurate stream : Yes
Defeat audio cache : Yes
Make use of C2 pointers : No
Read offset correction : 48
Overread into Lead-In and Lead-Out : No
Fill up missing offset samples with silence : Yes
Delete leading and trailing silent blocks : No
Null samples used in CRC calculations : Yes
Used interface : Installed external ASPI interface
Used output format : Internal WAV Routines
Sample format : 44.100 Hz; 16 Bit; Stereo
TOC of the extracted CD
Track | Start | Length | Start sector | End sector
---------------------------------------------------------
1 | 0:00.32 | 7:27.58 | 32 | 33614
2 | 7:28.15 | 7:28.17 | 33615 | 67231
3 | 14:56.32 | 7:18.38 | 67232 | 100119
4 | 22:14.70 | 6:39.32 | 100120 | 130076
5 | 28:54.27 | 6:07.08 | 130077 | 157609
6 | 35:01.35 | 6:22.22 | 157610 | 186281
7 | 41:23.57 | 6:48.00 | 186282 | 216881
8 | 48:11.57 | 9:38.28 | 216882 | 260259
9 | 57:50.10 | 18:48.60 | 260260 | 344919
Range status and errors
Selected range
Filename E:\Music\Metallica\1993 Live Shit - Binge and Purge\CD1\Metallica - Live Shit Binge & Purge (Mexico City Disc 1).wav
Peak level 100.0 %
Range quality 100.0 %
Copy CRC 26C45340
Copy OK
No errors occurred
End of status report

Лог CD2

Exact Audio Copy V0.99 prebeta 2 from 28. July 2007
EAC extraction logfile from 10. December 2007, 22:22
Metallica / Live Shit: Binge & Purge Disc 2
Used drive : Optiarc DVD RW AD-5170A Adapter: 4 ID: 0
Read mode : Secure
Utilize accurate stream : Yes
Defeat audio cache : Yes
Make use of C2 pointers : No
Read offset correction : 48
Overread into Lead-In and Lead-Out : No
Fill up missing offset samples with silence : Yes
Delete leading and trailing silent blocks : No
Null samples used in CRC calculations : Yes
Used interface : Native Win32 interface for Win NT & 2000
Used output format : Internal WAV Routines
Sample format : 44.100 Hz; 16 Bit; Stereo
TOC of the extracted CD
Track | Start | Length | Start sector | End sector
---------------------------------------------------------
1 | 0:00.32 | 3:46.70 | 32 | 17051
2 | 3:47.27 | 5:48.25 | 17052 | 43176
3 | 9:35.52 | 7:12.25 | 43177 | 75601
4 | 16:48.02 | 4:35.25 | 75602 | 96251
5 | 21:23.27 | 18:08.25 | 96252 | 177876
6 | 39:31.52 | 5:34.07 | 177877 | 202933
Range status and errors
Selected range
Filename E:\Music\Metallica\1993 Live Shit - Binge and Purge\CD2\Metallica - Live Shit Binge & Purge Disc 2.wav
Peak level 100.0 %
Range quality 100.0 %
Copy CRC 06E360A7
Copy OK
No errors occurred
End of status report

Лог CD3

Exact Audio Copy V0.99 prebeta 2 from 28. July 2007
EAC extraction logfile from 2. January 2008, 18:33
Metallica / Live Shit: Binge & Purge Disc 3
Used drive : Optiarc DVD RW AD-5170A Adapter: 4 ID: 0
Read mode : Secure
Utilize accurate stream : Yes
Defeat audio cache : Yes
Make use of C2 pointers : No
Read offset correction : 48
Overread into Lead-In and Lead-Out : No
Fill up missing offset samples with silence : Yes
Delete leading and trailing silent blocks : No
Null samples used in CRC calculations : Yes
Used interface : Installed external ASPI interface
Used output format : Internal WAV Routines
Sample format : 44.100 Hz; 16 Bit; Stereo
TOC of the extracted CD
Track | Start | Length | Start sector | End sector
---------------------------------------------------------
1 | 0:00.32 | 6:21.50 | 32 | 28656
2 | 6:22.07 | 6:32.43 | 28657 | 58099
3 | 12:54.50 | 5:41.52 | 58100 | 83726
4 | 18:36.27 | 1:24.58 | 83727 | 90084
5 | 20:01.10 | 10:27.00 | 90085 | 137109
6 | 30:28.10 | 10:04.65 | 137110 | 182474
7 | 40:33.00 | 6:07.55 | 182475 | 210054
8 | 46:40.55 | 3:14.32 | 210055 | 224636
9 | 49:55.12 | 5:32.15 | 224637 | 249551
Range status and errors
Selected range
Filename M:\Music\Metallica\1993 Live Shit - Binge and Purge\CD3\NewRip\Metallica - Live Shit Binge & Purge Disc 3.wav
Peak level 100.0 %
Range quality 99.9 %
Copy CRC 9008B20A
Copy OK
No errors occurred
End of status report

1993 One Live (CDS)

1. One (Live)
2. Whiplash (Live)
3. For Whom the Bell Tolls (Live)
4. Last Caress (Live)

Лог

1996 Hero of the Day (CDS)

CD1
1. Hero of the Day
2. Overkill
3. Damage Case
4. Hero of the Day (Outta B Sides Mix)
CD2
1. Hero of the Day
2. Stone Dead Forever
3. Too Late Too Late
4. Mouldy (Hero of the Day- Early Demo Version)

1996 Load

1 Ain't My *здесь я пытался ругнуться матом*
2 2 x 4
3 The House Jack Built
4 Until It Sleeps
5 King Nothing
6 Hero Of The Day
7 Bleeding Me
8 Cure
9 Poor Twisted Me
10 Wasting My Hate
11 Mama Said
12 Thorn Within
13 Ronnie
14 The Outlaw Torn

1996 Mama Said (CDS)

CD1:
1. Mama Said
2. King Nothing (Live)
3. Whiplash (Live)
4. Mama said (Edit)
CD2:
1. Mama Said
2. So What (Live)
3. Creeping Death (Live)
4. Mama Said (Early Demo Version)

1996 Until It Sleeps (CDS)

CD1:
1. Until It Sleeps
2. 2 X 4 (Live)
3. F.O.B.D. (Aka Until It Sleeps - Early 'Writing In Progress' Version)
CD2:
1. Until It Sleeps
2. Kill/Ride Medley (Live)
3. Until It Sleeps (Herman Melville Mix)

1997 Reload

1 Fuel
2 The Memory Remains
3 Devil's Dance
4 The Unforgiven II
5 Better Than You
6 Slither
7 Carpe Diem Baby
8 Bad Seed
9 Where The Wild Things Are
10 Prince Charming
11 Low Man's Lyric
12 Attitude
13 Fixxxer

1997 The Memory Remains (CDS)

1. The Memory Remains
2. Outlaw Torn (Unencumbered by Manufacturing Restrictions Version)
3. King Nothing (Tepid Mix)

1998 Fuel (CDS)

CD1
1. Fuel
2. Sad But True (Live)
3. Nothing Else Matters (Live)
CD2
1. Fuel
2. Wherever I May Roam (Live)
3. One (Live)
CD3
1. Fuel
2. Until It Sleeps (Live)
3. Fuel (Live)
4. Fuel (Demo)
Все живые треки были записаны 20 апреля 1998 в the Brisbane Entertainment Centre, Brisbane, Australia

1998 Garage, Inc

1 Free Speech For The Dumb
2 It's Electric
3 Sabbra Cadabra
4 Turn The Page
5 Die, Die My Darling
6 Loverman
7 Mercyful Fate
8 Astronomy
9 Whiskey In The Jar
10 Tuesday's Gone
11 The More I See
12 Helpless
13 The Small Hours
14 The Wait
15 Crash Course In Brain Surgery
16 Green Hell
17 Am I Evil
18 Blitzkrieg
19 Breadfan
20 The Prince
21 Stone Cold Crazy
22 So What
23 Killing Time
24 Overkill
25 Damage Case
26 Stone Dead Forever
27 Too Late , Too Late

1998 The Unforgiven II (CDS)

1. The Unforgiven II
2. Helpless (Live)
3. The Four Horsemen (Live)
4. Of Wolf and Man (Live)

1999 Die, Die My Darling (CDS)

1. Die, Die My Darling
2. Sabbra Cadabra (Live)
3. Mercyful Fate (Live)

1999 S&M

CD1
1. The Ecstasy Of Gold
2. The Call Of The Ktulu
3. Master Of Puppets
4. Of Wolf And Man
5. The Thing That Should Not Be
6. Fuel
7. The Memory Remains
8. No Leaf Clover
9. Hero Of The Day
10. Devil's Dance
11. Bleeding Me
CD2
1. Nothing Else Matters
2. Until It Sleeps
3. For Whom The Bell Tolls
4. Human
5. Wherever I May Roam
6. Outlaw Torn
7. Sad But True
8. One
9. Enter Sandman
10. Battery

Лог CD1

Exact Audio Copy V0.99 prebeta 2 from 28. July 2007
EAC extraction logfile from 16. December 2007, 23:34
Metallica / S&M (CD1)
Used drive : Optiarc DVD RW AD-5170A Adapter: 4 ID: 0
Read mode : Secure
Utilize accurate stream : Yes
Defeat audio cache : Yes
Make use of C2 pointers : No
Read offset correction : 48
Overread into Lead-In and Lead-Out : No
Fill up missing offset samples with silence : Yes
Delete leading and trailing silent blocks : No
Null samples used in CRC calculations : Yes
Used interface : Installed external ASPI interface
Used output format : Internal WAV Routines
Sample format : 44.100 Hz; 16 Bit; Stereo
TOC of the extracted CD
Track | Start | Length | Start sector | End sector
---------------------------------------------------------
1 | 0:00.00 | 2:30.45 | 0 | 11294
2 | 2:30.45 | 9:34.20 | 11295 | 54364
3 | 12:04.65 | 8:54.57 | 54365 | 94471
4 | 20:59.47 | 4:18.65 | 94472 | 113886
5 | 25:18.37 | 7:26.65 | 113887 | 147401
6 | 32:45.27 | 4:35.53 | 147402 | 168079
7 | 37:21.05 | 4:42.27 | 168080 | 189256
8 | 42:03.32 | 5:43.15 | 189257 | 214996
9 | 47:46.47 | 4:44.48 | 214997 | 236344
10 | 52:31.20 | 5:26.00 | 236345 | 260794
11 | 57:57.20 | 9:01.47 | 260795 | 301416
Range status and errors
Selected range
Filename M:\Music\Metallica\1999 S&M\CD1\Metallica - S&M (CD1).wav
Peak level 100.0 %
Range quality 100.0 %
Copy CRC E5164F6D
Copy OK
No errors occurred
End of status report

Лог CD2

Exact Audio Copy V0.99 prebeta 2 from 28. July 2007
EAC extraction logfile from 16. December 2007, 23:54
Metallica / S&M (CD2)
Used drive : Optiarc DVD RW AD-5170A Adapter: 4 ID: 0
Read mode : Secure
Utilize accurate stream : Yes
Defeat audio cache : Yes
Make use of C2 pointers : No
Read offset correction : 48
Overread into Lead-In and Lead-Out : No
Fill up missing offset samples with silence : Yes
Delete leading and trailing silent blocks : No
Null samples used in CRC calculations : Yes
Used interface : Installed external ASPI interface
Used output format : Internal WAV Routines
Sample format : 44.100 Hz; 16 Bit; Stereo
TOC of the extracted CD
Track | Start | Length | Start sector | End sector
---------------------------------------------------------
1 | 0:00.00 | 6:47.57 | 0 | 30581
2 | 6:47.57 | 4:29.73 | 30582 | 50829
3 | 11:17.55 | 4:52.12 | 50830 | 72741
4 | 16:09.67 | 4:19.60 | 72742 | 92226
5 | 20:29.52 | 7:01.35 | 92227 | 123836
6 | 27:31.12 | 9:58.68 | 123837 | 168754
7 | 37:30.05 | 5:46.20 | 168755 | 194724
8 | 43:16.25 | 7:53.05 | 194725 | 230204
9 | 51:09.30 | 7:39.10 | 230205 | 264639
10 | 58:48.40 | 7:24.50 | 264640 | 297989
Range status and errors
Selected range
Filename M:\Music\Metallica\1999 S&M\CD2\Metallica - S&M (CD2).wav
Peak level 100.0 %
Range quality 100.0 %
Copy CRC EE6D1F02
Copy OK
No errors occurred
End of status report

1999 S&M (2006 Japaneese Reissue)

CD1
1. The Ecstasy Of Gold
2. The Call Of The Ktulu
3. Master Of Puppets
4. Of Wolf And Man
5. The Thing That Should Not Be
6. Fuel
7. The Memory Remains
8. No Leaf Clover
9. Hero Of The Day
10. Devil's Dance
11. Bleeding Me
CD2
1. Nothing Else Matters
2. Until It Sleeps
3. For Whom The Bell Tolls
4. Human
5. Wherever I May Roam
6. Outlaw Torn
7. Sad But True
8. One
9. Enter Sandman
10. Battery

1999 Whiskey in the Jar (CDS)

1. Whisky in the Jar
2. Blitzkrieg (Live)
3. The Prince (Live)
4. The Small Hours (Live)
5. Killing Time (Live)
6. Whisky in the Jar (Live)
7. It's Electric
8. Sabbra Cadabbra
9. Astronomy

2000 I Dissappear (CDS)

1. I Disappear

2003 Frantic (CDS)

1. Frantic
2. Harvester of Sorrow (Live at Doctor Music Day)
3. Welcome Home (Sanitarium) (Live at Doctor Music Day)
4. No Remorse (Live at Doctor Music Day)

2003 St. Anger (не 2006 Japanese Reissue)

1. Frantic
2. St. Anger
3. Some Kind Of Monster
4. Dirty Window
5. Invisible Kid
6. My World
7. Shoot Me Again
8. Sweet Amber
9. The Unnamed Feeling
10. Purify
11. All Within My Hands

2003 St.Anger (CDS)

1. St. Anger
2. Commando
3. Today Your Love, Tomorrow The World
4. Now I Wanna Snif Some Glue

2003 The Unnamed Feeling (CDS)

CD1:
1. The Unnamed Feeling
2. The Four Horsemen (Live at Le Bataclan, Paris, 2003)
3. Damage, Inc. (Live at Le Bataclan, Paris, 2003)
CD2:
1. The Unnamed Feeling
2. Hit the Lights (Live at Le Trabendo, Paris, 2003)
3. Ride the Lightning (Live at Le Bataclan, Paris, 2003)
4. Motorbreath (Live at Le Boule Noire, Paris, 2003)

2004 Some Kind of Monster (EP)

1. Some Kind Of Monster
2. The Four Horsemen (Live)
3. Damage, Inc. (Live)
4. Leper Messiah (Live)
5. Motorbreath (Live)
6. Ride The Lightning (Live)
7. Hit The Lights (Live)
8. Some Kind Of Monster (Edit)

2008 Death Magnetic

01. That Was Just Your Life [0:07:07.43]
02. The End Of The Line [0:07:52.72]
03. Broken, Beat & Scarred [0:06:25.37]
04. The Day That Never Comes [0:07:56.00]
05. All Nightmare Long [0:07:57.33]
06. Cyanide [0:06:37.33]
07. The Unforgiven III [0:07:49.29]
08. The Judas Kiss [0:08:00.08]
09. Suicide & Redemption [0:09:56.16]
10. My Apocalypse [0:04:59.67]
11. Suicide & Redemption (J_H) [0:09:56.33]

Лог

EAC extraction logfile from 11. September 2008, 19:06 for CD
METALLICA / Death Magnetic [VERTIGO 2517-7372-8]
Used drive : PLEXTOR DVDR PX-755A Adapter: 1 ID: 1
Read mode : Secure with NO C2, accurate stream, disable cache
Read offset correction : 30
Overread into Lead-In and Lead-Out : Yes
Used output format : D:\Programs\MeTaLMaDNeSS.Pack.v2.0.-.Tutoriales.Lossless.(APE.&.FLAC)+.Programas.[Spanish.&.English]\eac095pb5\FLAC.EXE (User Defined Encoder)
32 kBit/s
Additional command line options : -1 -V -T "artist=%a" -T "title=%t" -T "album=%g" -T "date=%y" -T "tracknumber=%n" -T "genre=%m" -T "comment=EAC 0.95beta4 / FLAC 1.1.2 q6" %s
Use compression offset : 0
Other options :
Fill up missing offset samples with silence : Yes
Delete leading and trailing silent blocks : No
Installed external ASPI interface
Range status and errors
Selected range
Filename D:\Recorded From Vinyl & EAC Files\#My Releases\METALLICA [2008] Death Magnetic [VERTIGO 2517-7372-8]\METALLICA [2008] Death Magnetic [VERTIGO 2517-7372-8].flac.wav
Peak level 100.0 %
Range quality 100.0 %
CRC B2CF518F
Copy OK
No errors occured
End of status report

2008 Death Magnetic (Guitar Hero III rip)

01. That Was Just Your Life
02. The End of the Line
03. Broken, Beat & Scarred
04. The Day That Never Comes
05. All Nightmare Long
06. Cyanide
07. The Unforgiven III
08. The Judas Kiss
09. Suicide & Redemption K.H.
10. My Apocalypse
Bonus:
11. Suicide & Redemption J.H.

Info

Metallica
Death Magnetic (Guitar Hero III rip)
Lineage: Xbox 360 optical out > Firewire 410 > Audacity (.wav) > dbPowerAmp (.flac w/ verify)
Notes: This rip was created because of the backlash over the sound quality of the official release of Death Magnetic. A few astute folks found that the versions available for download on Guitar Hero III did not suffer from the compression and clipping that plauge the official release, so a project was launched to rip the GH III versions to a lossless format. This is the result of that project. As for the sound: this rip is noticeably quieter than the official release; the levels were not boosted because there were already peaks in the waveforms that were close to 0dB. The only way to adjust the volume would be to compress the tracks, which would have been difficult to justify given the purpose of this project. You can easily compensate for this by turning the volume knob on your audio equipment :)

2008 Death Magnetic (Game Version) by Igor191965

01. That Was Just Your Life [0:07:07.43]
02. The End Of The Line [0:07:52.72]
03. Broken, Beat & Scarred [0:06:25.37]
04. The Day That Never Comes [0:07:56.00]
05. All Nightmare Long [0:07:57.33]
06. Cyanide [0:06:37.33]
07. The Unforgiven III [0:07:49.29]
08. The Judas Kiss [0:08:00.08]
09. Suicide & Redemption [0:09:56.16]
10. My Apocalypse [0:04:59.67]
11. Suicide & Redemption (J_H) [0:09:56.33]
Скачать

Скачать бесплатно и на максимальной скорости!

Как скачивать? · Что такое торрент? · Рейтинг и ограничения


_________________
[Профиль]  [ЛС] 

zeep

Стаж: 9 лет 7 месяцев

Сообщений: 144

Откуда: Тула, Пролетарский

Пост 12-Май-2010 15:12 (спустя 4 часа)

[Цитировать] 

По возможности дооформите графическую часть.

_________________

Чем больше я в интернете, тем больше понимаю, что со всеобщей грамотностью большевики погорячились
[Профиль]  [ЛС] 

Zurbagan

Стаж: 9 лет 7 месяцев

Сообщений: 1

Пост 17-Май-2010 22:08 (спустя 5 дней)

[Цитировать] 

А было добавление? Раздача то старая. masterrr, пожалуйста раздайте.Осталось 1,5 %((((
[Профиль]  [ЛС] 
Показать сообщения:    
Ответить на тему

Текущее время: Сегодня 15:42

Часовой пояс: GMT + 3



Вы не можете начинать темы
Вы не можете отвечать на сообщения
Вы не можете редактировать свои сообщения
Вы не можете удалять свои сообщения
Вы не можете голосовать в опросах
Вы не можете прикреплять файлы к сообщениям
Вы не можете скачивать файлы