(Alternative Metal / Industrial Metal) Marilyn Manson - Дискография - 1994-2009, FLAC (tracks+.cue), lossless

Ответить на тему
 
Автор Сообщение

Three7 ®

Стаж: 9 лет 7 месяцев

Сообщений: 464

Откуда: Тула

Пост 16-Авг-2010 23:17

[Цитировать] 

Marilyn Manson - Дискография-- -Страна: USA || Жанр: Alternative Metal / Industrial Metal || Год выпуска: 1994-2009
Формат: FLAC (tracks+.cue) || Битрейт аудио: lossless || Продолжительность: 10:12:06
-

1994 - Portrait Of An American Family

01. Prelude (The Family Trip) (1:21)
02. Cake And Sodomy (3:46)
03. Lunchbox (4:33)
04. Organ Grinder (4:22)
05. Cyclops (3:32)
06. Dope Hat (4:22)
07. Get Your Gunn (3:18)
08. Wrapped In Plastic (5:35)
09. Dogma (3:22)
10. Sweet Tooth (5:03)
11. Snake Eyes And Sissies (4:07)
12. My Monkey (4:31)
13. Misery Machine (13:09)

EAC LOG

Exact Audio Copy V0.99 prebeta 4 from 23. January 2008
EAC extraction logfile from 23. May 2008, 12:35
Marilyn Manson / Portrait Of An American Family
Used drive : TOSHIBA ODD-DVD SD-R6372 Adapter: 1 ID: 0
Read mode : Secure
Utilize accurate stream : Yes
Defeat audio cache : Yes
Make use of C2 pointers : No
Read offset correction : 116
Overread into Lead-In and Lead-Out : No
Fill up missing offset samples with silence : Yes
Delete leading and trailing silent blocks : No
Null samples used in CRC calculations : Yes
Used interface : Native Win32 interface for Win NT & 2000
Gap handling : Appended to previous track
Used output format : User Defined Encoder
Selected bitrate : 768 kBit/s
Quality : High
Add ID3 tag : No
Command line compressor : C:\Program Files\FLAC\flac.exe
Additional command line options : -V -8 -T "artist=%a" -T "title=%t" -T "album=%g" -T "date=%y" -T "tracknumber=%n" %s
TOC of the extracted CD
Track | Start | Length | Start sector | End sector
---------------------------------------------------------
1 | 0:00.00 | 1:20.70 | 0 | 6069
2 | 1:20.70 | 3:46.22 | 6070 | 23041
3 | 5:07.17 | 4:32.60 | 23042 | 43501
4 | 9:40.02 | 4:22.35 | 43502 | 63186
5 | 14:02.37 | 3:32.35 | 63187 | 79121
6 | 17:34.72 | 4:21.58 | 79122 | 98754
7 | 21:56.55 | 3:18.30 | 98755 | 113634
8 | 25:15.10 | 5:35.00 | 113635 | 138759
9 | 30:50.10 | 3:22.20 | 138760 | 153929
10 | 34:12.30 | 5:03.10 | 153930 | 176664
11 | 39:15.40 | 4:07.35 | 176665 | 195224
12 | 43:23.00 | 4:31.20 | 195225 | 215569
13 | 47:54.20 | 13:09.10 | 215570 | 274754
Track 1
Filename C:\Hi there RIAA, What's up IFPI\Marilyn Manson - Portrait Of An American Family\01 - Prelude (The Family Trip).wav
Pre-gap length 0:00:02.00
Peak level 97.2 %
Track quality 100.0 %
Test CRC 12D72DA6
Copy CRC 12D72DA6
Accurately ripped (confidence 4) [ACA7863C]
Copy OK
Track 2
Filename C:\Hi there RIAA, What's up IFPI\Marilyn Manson - Portrait Of An American Family\02 - Cake And Sodomy.wav
Peak level 97.2 %
Track quality 100.0 %
Test CRC C2C319AC
Copy CRC C2C319AC
Accurately ripped (confidence 4) [3B46E497]
Copy OK
Track 3
Filename C:\Hi there RIAA, What's up IFPI\Marilyn Manson - Portrait Of An American Family\03 - Lunchbox.wav
Peak level 97.2 %
Track quality 100.0 %
Test CRC 3F625907
Copy CRC 3F625907
Accurately ripped (confidence 3) [16A8E220]
Copy OK
Track 4
Filename C:\Hi there RIAA, What's up IFPI\Marilyn Manson - Portrait Of An American Family\04 - Organ Grinder.wav
Peak level 97.2 %
Track quality 100.0 %
Test CRC 55E41C0D
Copy CRC 55E41C0D
Accurately ripped (confidence 4) [1662C850]
Copy OK
Track 5
Filename C:\Hi there RIAA, What's up IFPI\Marilyn Manson - Portrait Of An American Family\05 - Cyclops.wav
Peak level 97.2 %
Track quality 100.0 %
Test CRC 68B09EF5
Copy CRC 68B09EF5
Accurately ripped (confidence 4) [EEFFE903]
Copy OK
Track 6
Filename C:\Hi there RIAA, What's up IFPI\Marilyn Manson - Portrait Of An American Family\06 - Dope Hat.wav
Peak level 97.2 %
Track quality 100.0 %
Test CRC E21AE656
Copy CRC E21AE656
Accurately ripped (confidence 3) [094F5E96]
Copy OK
Track 7
Filename C:\Hi there RIAA, What's up IFPI\Marilyn Manson - Portrait Of An American Family\07 - Get Your Gunn.wav
Pre-gap length 0:00:03.56
Peak level 97.2 %
Track quality 100.0 %
Test CRC EA92FAA9
Copy CRC EA92FAA9
Accurately ripped (confidence 4) [4D3BAC9E]
Copy OK
Track 8
Filename C:\Hi there RIAA, What's up IFPI\Marilyn Manson - Portrait Of An American Family\08 - Wrapped In Plastic.wav
Peak level 97.2 %
Track quality 100.0 %
Test CRC 68C4BBB5
Copy CRC 68C4BBB5
Accurately ripped (confidence 4) [6D585000]
Copy OK
Track 9
Filename C:\Hi there RIAA, What's up IFPI\Marilyn Manson - Portrait Of An American Family\09 - Dogma.wav
Peak level 97.2 %
Track quality 100.0 %
Test CRC EFD186B9
Copy CRC EFD186B9
Accurately ripped (confidence 4) [73D40C53]
Copy OK
Track 10
Filename C:\Hi there RIAA, What's up IFPI\Marilyn Manson - Portrait Of An American Family\10 - Sweet Tooth.wav
Peak level 97.2 %
Track quality 100.0 %
Test CRC 42347384
Copy CRC 42347384
Accurately ripped (confidence 4) [73765D71]
Copy OK
Track 11
Filename C:\Hi there RIAA, What's up IFPI\Marilyn Manson - Portrait Of An American Family\11 - Snake Eyes And Sissies.wav
Peak level 97.2 %
Track quality 100.0 %
Test CRC 9EDF9D32
Copy CRC 9EDF9D32
Accurately ripped (confidence 4) [0D4A5646]
Copy OK
Track 12
Filename C:\Hi there RIAA, What's up IFPI\Marilyn Manson - Portrait Of An American Family\12 - My Monkey.wav
Peak level 97.2 %
Track quality 100.0 %
Test CRC 9B5715C8
Copy CRC 9B5715C8
Accurately ripped (confidence 4) [8241B5FB]
Copy OK
Track 13
Filename C:\Hi there RIAA, What's up IFPI\Marilyn Manson - Portrait Of An American Family\13 - Misery Machine.wav
Pre-gap length 0:00:01.31
Peak level 97.2 %
Track quality 100.0 %
Test CRC BBF7921D
Copy CRC BBF7921D
Accurately ripped (confidence 4) [D80B7021]
Copy OK
All tracks accurately ripped
No errors occurred
End of status report

1995 - Smells Like Children

01. The Hands Of Small Children (1:35)
02. Diary Of A Dope Fiend (5:56)
03. Shitty Chicken Gang Bang (1:19)
04. Kiddie Grinder (Remix) (4:23)
05. Sympathy For The Parents (1:01)
06. Sweet Dreams (Are Made Of This) (4:53)
07. Everlasting Cocksucker (Remix) (5:14)
08. *здесь я пытался ругнуться матом* Frankie (1:48)
09. I Put A Spell On You (3:37)
10. May Cause Discoloration Of The Urine Or Feces (3:59)
11. Scabs, Guns And Peanut Butter (1:01)
12. Dance Of The Dope Hats (Remix) (4:40)
13. White Trash (Remixed By Tony F. Wiggins) (2:48)
14. Dancing With The One-Legged... (0:46)
15. Rock 'N' Roll Nigger (3:32)
16. (Untitled) (8:20)

EAC LOG

Exact Audio Copy V0.99 prebeta 4 from 23. January 2008
EAC extraction logfile from 31. August 2008, 20:53
Marilyn Manson / Smells Like Children
Used drive : HL-DT-STDVDRAM GH20NS10 Adapter: 3 ID: 0
Read mode : Secure
Utilize accurate stream : Yes
Defeat audio cache : Yes
Make use of C2 pointers : No
Read offset correction : 667
Overread into Lead-In and Lead-Out : No
Fill up missing offset samples with silence : Yes
Delete leading and trailing silent blocks : No
Null samples used in CRC calculations : Yes
Used interface : Native Win32 interface for Win NT & 2000
Gap handling : Appended to previous track
Used output format : User Defined Encoder
Selected bitrate : 768 kBit/s
Quality : High
Add ID3 tag : No
Command line compressor : C:\Program Files\FLAC\flac.exe
Additional command line options : -V -8 -T "artist=%a" -T "title=%t" -T "album=%g" -T "date=%y" -T "tracknumber=%n" %s
TOC of the extracted CD
Track | Start | Length | Start sector | End sector
---------------------------------------------------------
1 | 0:00.00 | 1:35.05 | 0 | 7129
2 | 1:35.05 | 5:55.67 | 7130 | 33821
3 | 7:30.72 | 1:19.18 | 33822 | 39764
4 | 8:50.15 | 4:23.35 | 39765 | 59524
5 | 13:13.50 | 1:00.52 | 59525 | 64076
6 | 14:14.27 | 4:53.25 | 64077 | 86076
7 | 19:07.52 | 5:13.48 | 86077 | 109599
8 | 24:21.25 | 1:48.12 | 109600 | 117711
9 | 26:09.37 | 3:36.58 | 117712 | 133969
10 | 29:46.20 | 3:59.12 | 133970 | 151906
11 | 33:45.32 | 1:01.18 | 151907 | 156499
12 | 34:46.50 | 4:39.72 | 156500 | 177496
13 | 39:26.47 | 2:47.63 | 177497 | 190084
14 | 42:14.35 | 0:45.67 | 190085 | 193526
15 | 43:00.27 | 3:31.48 | 193527 | 209399
16 | 46:32.00 | 8:19.52 | 209400 | 246876
Track 1
Filename C:\Hi there RIAA, What's up IFPI\Marilyn Manson - Smells Like Children\01 - The Hands Of Small Children.wav
Pre-gap length 0:00:02.00
Peak level 76.9 %
Track quality 100.0 %
Test CRC 50E325B3
Copy CRC 50E325B3
Accurately ripped (confidence 8) [44B1CD52]
Copy OK
Track 2
Filename C:\Hi there RIAA, What's up IFPI\Marilyn Manson - Smells Like Children\02 - Diary Of A Dope Fiend.wav
Peak level 97.6 %
Track quality 100.0 %
Test CRC CE966584
Copy CRC CE966584
Accurately ripped (confidence 8) [4C3CDFC9]
Copy OK
Track 3
Filename C:\Hi there RIAA, What's up IFPI\Marilyn Manson - Smells Like Children\03 - Shitty Chicken Gang Bang.wav
Peak level 97.7 %
Track quality 100.0 %
Test CRC 4DDC0C0E
Copy CRC 4DDC0C0E
Accurately ripped (confidence 8) [5C68C271]
Copy OK
Track 4
Filename C:\Hi there RIAA, What's up IFPI\Marilyn Manson - Smells Like Children\04 - Kiddie Grinder (Remix).wav
Peak level 97.6 %
Track quality 100.0 %
Test CRC 7EA9D62E
Copy CRC 7EA9D62E
Accurately ripped (confidence 8) [B862E444]
Copy OK
Track 5
Filename C:\Hi there RIAA, What's up IFPI\Marilyn Manson - Smells Like Children\05 - Sympathy For The Parents.wav
Peak level 96.3 %
Track quality 100.0 %
Test CRC 7F19537B
Copy CRC 7F19537B
Accurately ripped (confidence 7) [98460CC1]
Copy OK
Track 6
Filename C:\Hi there RIAA, What's up IFPI\Marilyn Manson - Smells Like Children\06 - Sweet Dreams (Are Made Of This).wav
Peak level 97.6 %
Track quality 100.0 %
Test CRC F74EB027
Copy CRC F74EB027
Accurately ripped (confidence 8) [A6576082]
Copy OK
Track 7
Filename C:\Hi there RIAA, What's up IFPI\Marilyn Manson - Smells Like Children\07 - Everlasting Cocksucker (Remix).wav
Pre-gap length 0:00:00.01
Peak level 97.7 %
Track quality 100.0 %
Test CRC A4001F44
Copy CRC A4001F44
Accurately ripped (confidence 7) [D7FA455E]
Copy OK
Track 8
Filename C:\Hi there RIAA, What's up IFPI\Marilyn Manson - Smells Like Children\08 - *здесь я пытался ругнуться матом* Frankie.wav
Peak level 87.2 %
Track quality 100.0 %
Test CRC 23B05750
Copy CRC 23B05750
Accurately ripped (confidence 7) [D5D739B7]
Copy OK
Track 9
Filename C:\Hi there RIAA, What's up IFPI\Marilyn Manson - Smells Like Children\09 - I Put A Spell On You.wav
Peak level 97.7 %
Track quality 100.0 %
Test CRC 9D9F17B0
Copy CRC 9D9F17B0
Accurately ripped (confidence 7) [7F012A70]
Copy OK
Track 10
Filename C:\Hi there RIAA, What's up IFPI\Marilyn Manson - Smells Like Children\10 - May Cause Discoloration Of The Urine Or Feces.wav
Peak level 69.0 %
Track quality 100.0 %
Test CRC CE55BD8D
Copy CRC CE55BD8D
Accurately ripped (confidence 7) [CAC874C7]
Copy OK
Track 11
Filename C:\Hi there RIAA, What's up IFPI\Marilyn Manson - Smells Like Children\11 - Scabs, Guns And Peanut Butter.wav
Peak level 86.6 %
Track quality 100.0 %
Test CRC A646E07C
Copy CRC A646E07C
Accurately ripped (confidence 8) [FC587038]
Copy OK
Track 12
Filename C:\Hi there RIAA, What's up IFPI\Marilyn Manson - Smells Like Children\12 - Dance Of The Dope Hats (Remix).wav
Peak level 97.7 %
Track quality 100.0 %
Test CRC CD40E8A9
Copy CRC CD40E8A9
Accurately ripped (confidence 7) [F437446A]
Copy OK
Track 13
Filename C:\Hi there RIAA, What's up IFPI\Marilyn Manson - Smells Like Children\13 - White Trash (Remixed By Tony F. Wiggins).wav
Pre-gap length 0:00:02.44
Peak level 97.7 %
Track quality 100.0 %
Test CRC 76A8206C
Copy CRC 76A8206C
Accurately ripped (confidence 7) [659AADD9]
Copy OK
Track 14
Filename C:\Hi there RIAA, What's up IFPI\Marilyn Manson - Smells Like Children\14 - Dancing With The One-Legged....wav
Peak level 89.7 %
Track quality 100.0 %
Test CRC 39A00340
Copy CRC 39A00340
Accurately ripped (confidence 7) [E90332E4]
Copy OK
Track 15
Filename C:\Hi there RIAA, What's up IFPI\Marilyn Manson - Smells Like Children\15 - Rock 'N' Roll Nigger.wav
Peak level 97.6 %
Track quality 100.0 %
Test CRC C9C10181
Copy CRC C9C10181
Accurately ripped (confidence 7) [9ADA036B]
Copy OK
Track 16
Filename C:\Hi there RIAA, What's up IFPI\Marilyn Manson - Smells Like Children\16 - (Untitled).wav
Peak level 97.6 %
Track quality 100.0 %
Test CRC 1B0F80AE
Copy CRC 1B0F80AE
Accurately ripped (confidence 4) [30F94ADD]
Copy OK
All tracks accurately ripped
No errors occurred
End of status report

1996 - Antichrist Superstar

01. Irresponsible Hate Anthem (4:18)
02. The Beautiful People (3:39)
03. Dried Up, Tied And Dead To The World (4:16)
04. Tourniquet (4:29)
05. Little Horn (2:43)
06. Cryptorchid (2:44)
07. Deformography (4:31)
08. Wormboy (3:56)
09. Mister Superstar (5:04)
10. Angel With The Scabbed Wings (3:52)
11. Kinderfeld (4:52)
12. Antichrist Superstar (5:14)
13. 1996 (4:01)
14. Minute Of Decay (4:44)
15. The Reflecting God (5:36)
16. Man That You Fear (6:11)
17. (Untitled) (0:09)
18-97. (Untitled) (0:04)
98. (Untitled) (0:05)
99. (Untitled) (1:39)

EAC LOG

Exact Audio Copy V0.99 prebeta 4 from 23. January 2008
EAC extraction logfile from 26. May 2008, 7:29
Marilyn Manson / Antichrist Superstar
Used drive : TOSHIBA ODD-DVD SD-R6372 Adapter: 1 ID: 0
Read mode : Secure
Utilize accurate stream : Yes
Defeat audio cache : Yes
Make use of C2 pointers : No
Read offset correction : 116
Overread into Lead-In and Lead-Out : No
Fill up missing offset samples with silence : Yes
Delete leading and trailing silent blocks : No
Null samples used in CRC calculations : Yes
Used interface : Native Win32 interface for Win NT & 2000
Gap handling : Appended to previous track
Used output format : User Defined Encoder
Selected bitrate : 768 kBit/s
Quality : High
Add ID3 tag : No
Command line compressor : C:\Program Files\FLAC\flac.exe
Additional command line options : -V -8 -T "artist=%a" -T "title=%t" -T "album=%g" -T "date=%y" -T "tracknumber=%n" %s
TOC of the extracted CD
Track | Start | Length | Start sector | End sector
---------------------------------------------------------
1 | 0:00.00 | 4:17.57 | 0 | 19331
2 | 4:17.57 | 3:38.63 | 19332 | 35744
3 | 7:56.45 | 4:15.47 | 35745 | 54916
4 | 12:12.17 | 4:29.00 | 54917 | 75091
5 | 16:41.17 | 2:43.15 | 75092 | 87331
6 | 19:24.32 | 2:44.00 | 87332 | 99631
7 | 22:08.32 | 4:31.25 | 99632 | 119981
8 | 26:39.57 | 3:56.13 | 119982 | 137694
9 | 30:35.70 | 5:04.02 | 137695 | 160496
10 | 35:39.72 | 3:52.08 | 160497 | 177904
11 | 39:32.05 | 4:51.72 | 177905 | 199801
12 | 44:24.02 | 5:14.18 | 199802 | 223369
13 | 49:38.20 | 4:01.25 | 223370 | 241469
14 | 53:39.45 | 4:44.05 | 241470 | 262774
15 | 58:23.50 | 5:36.25 | 262775 | 287999
16 | 64:00.00 | 6:10.45 | 288000 | 315794
17 | 70:10.45 | 0:09.12 | 315795 | 316481
18 | 70:19.57 | 0:04.00 | 316482 | 316781
19 | 70:23.57 | 0:04.00 | 316782 | 317081
20 | 70:27.57 | 0:04.00 | 317082 | 317381
21 | 70:31.57 | 0:04.00 | 317382 | 317681
22 | 70:35.57 | 0:04.00 | 317682 | 317981
23 | 70:39.57 | 0:04.00 | 317982 | 318281
24 | 70:43.57 | 0:04.00 | 318282 | 318581
25 | 70:47.57 | 0:04.00 | 318582 | 318881
26 | 70:51.57 | 0:04.00 | 318882 | 319181
27 | 70:55.57 | 0:04.00 | 319182 | 319481
28 | 70:59.57 | 0:04.00 | 319482 | 319781
29 | 71:03.57 | 0:04.00 | 319782 | 320081
30 | 71:07.57 | 0:04.00 | 320082 | 320381
31 | 71:11.57 | 0:04.00 | 320382 | 320681
32 | 71:15.57 | 0:04.00 | 320682 | 320981
33 | 71:19.57 | 0:04.00 | 320982 | 321281
34 | 71:23.57 | 0:04.00 | 321282 | 321581
35 | 71:27.57 | 0:04.00 | 321582 | 321881
36 | 71:31.57 | 0:04.00 | 321882 | 322181
37 | 71:35.57 | 0:04.00 | 322182 | 322481
38 | 71:39.57 | 0:04.00 | 322482 | 322781
39 | 71:43.57 | 0:04.00 | 322782 | 323081
40 | 71:47.57 | 0:04.00 | 323082 | 323381
41 | 71:51.57 | 0:04.00 | 323382 | 323681
42 | 71:55.57 | 0:04.00 | 323682 | 323981
43 | 71:59.57 | 0:04.00 | 323982 | 324281
44 | 72:03.57 | 0:04.00 | 324282 | 324581
45 | 72:07.57 | 0:04.00 | 324582 | 324881
46 | 72:11.57 | 0:04.00 | 324882 | 325181
47 | 72:15.57 | 0:04.00 | 325182 | 325481
48 | 72:19.57 | 0:04.00 | 325482 | 325781
49 | 72:23.57 | 0:04.00 | 325782 | 326081
50 | 72:27.57 | 0:04.00 | 326082 | 326381
51 | 72:31.57 | 0:04.00 | 326382 | 326681
52 | 72:35.57 | 0:04.00 | 326682 | 326981
53 | 72:39.57 | 0:04.00 | 326982 | 327281
54 | 72:43.57 | 0:04.00 | 327282 | 327581
55 | 72:47.57 | 0:04.00 | 327582 | 327881
56 | 72:51.57 | 0:04.00 | 327882 | 328181
57 | 72:55.57 | 0:04.00 | 328182 | 328481
58 | 72:59.57 | 0:04.00 | 328482 | 328781
59 | 73:03.57 | 0:04.00 | 328782 | 329081
60 | 73:07.57 | 0:04.00 | 329082 | 329381
61 | 73:11.57 | 0:04.00 | 329382 | 329681
62 | 73:15.57 | 0:04.00 | 329682 | 329981
63 | 73:19.57 | 0:04.00 | 329982 | 330281
64 | 73:23.57 | 0:04.00 | 330282 | 330581
65 | 73:27.57 | 0:04.00 | 330582 | 330881
66 | 73:31.57 | 0:04.00 | 330882 | 331181
67 | 73:35.57 | 0:04.00 | 331182 | 331481
68 | 73:39.57 | 0:04.00 | 331482 | 331781
69 | 73:43.57 | 0:04.00 | 331782 | 332081
70 | 73:47.57 | 0:04.00 | 332082 | 332381
71 | 73:51.57 | 0:04.00 | 332382 | 332681
72 | 73:55.57 | 0:04.00 | 332682 | 332981
73 | 73:59.57 | 0:04.00 | 332982 | 333281
74 | 74:03.57 | 0:04.00 | 333282 | 333581
75 | 74:07.57 | 0:04.00 | 333582 | 333881
76 | 74:11.57 | 0:04.00 | 333882 | 334181
77 | 74:15.57 | 0:04.00 | 334182 | 334481
78 | 74:19.57 | 0:04.00 | 334482 | 334781
79 | 74:23.57 | 0:04.00 | 334782 | 335081
80 | 74:27.57 | 0:04.00 | 335082 | 335381
81 | 74:31.57 | 0:04.00 | 335382 | 335681
82 | 74:35.57 | 0:04.00 | 335682 | 335981
83 | 74:39.57 | 0:04.00 | 335982 | 336281
84 | 74:43.57 | 0:04.00 | 336282 | 336581
85 | 74:47.57 | 0:04.00 | 336582 | 336881
86 | 74:51.57 | 0:04.00 | 336882 | 337181
87 | 74:55.57 | 0:04.00 | 337182 | 337481
88 | 74:59.57 | 0:04.00 | 337482 | 337781
89 | 75:03.57 | 0:04.00 | 337782 | 338081
90 | 75:07.57 | 0:04.00 | 338082 | 338381
91 | 75:11.57 | 0:04.00 | 338382 | 338681
92 | 75:15.57 | 0:04.00 | 338682 | 338981
93 | 75:19.57 | 0:04.00 | 338982 | 339281
94 | 75:23.57 | 0:04.00 | 339282 | 339581
95 | 75:27.57 | 0:04.00 | 339582 | 339881
96 | 75:31.57 | 0:04.00 | 339882 | 340181
97 | 75:35.57 | 0:04.00 | 340182 | 340481
98 | 75:39.57 | 0:05.18 | 340482 | 340874
99 | 75:45.00 | 1:39.15 | 340875 | 348314
Track 1
Filename C:\Hi there RIAA, What's up IFPI\Marilyn Manson - Antichrist Superstar\01 - Irresponsible Hate Anthem.wav
Pre-gap length 0:00:02.00
Peak level 99.6 %
Track quality 100.0 %
Test CRC 6AAB73CC
Copy CRC 6AAB73CC
Accurately ripped (confidence 14) [74671628]
Copy OK
Track 2
Filename C:\Hi there RIAA, What's up IFPI\Marilyn Manson - Antichrist Superstar\02 - The Beautiful People.wav
Peak level 99.7 %
Track quality 99.9 %
Test CRC 2EA61360
Copy CRC 2EA61360
Accurately ripped (confidence 14) [27908390]
Copy OK
Track 3
Filename C:\Hi there RIAA, What's up IFPI\Marilyn Manson - Antichrist Superstar\03 - Dried Up, Tied And Dead To The World.wav
Peak level 99.9 %
Track quality 100.0 %
Test CRC D62E8C04
Copy CRC D62E8C04
Accurately ripped (confidence 14) [66A6F3C3]
Copy OK
Track 4
Filename C:\Hi there RIAA, What's up IFPI\Marilyn Manson - Antichrist Superstar\04 - Tourniquet.wav
Peak level 99.9 %
Track quality 100.0 %
Test CRC C07D457E
Copy CRC C07D457E
Accurately ripped (confidence 14) [D23870D8]
Copy OK
Track 5
Filename C:\Hi there RIAA, What's up IFPI\Marilyn Manson - Antichrist Superstar\05 - Little Horn.wav
Peak level 99.5 %
Track quality 100.0 %
Test CRC 89A2A60E
Copy CRC 89A2A60E
Accurately ripped (confidence 14) [80379E36]
Copy OK
Track 6
Filename C:\Hi there RIAA, What's up IFPI\Marilyn Manson - Antichrist Superstar\06 - Cryptorchid.wav
Pre-gap length 0:00:00.01
Peak level 95.4 %
Track quality 100.0 %
Test CRC 1012ABD7
Copy CRC 1012ABD7
Accurately ripped (confidence 13) [7AC52300]
Copy OK
Track 7
Filename C:\Hi there RIAA, What's up IFPI\Marilyn Manson - Antichrist Superstar\07 - Deformography.wav
Peak level 99.9 %
Track quality 100.0 %
Test CRC 1311984E
Copy CRC 1311984E
Accurately ripped (confidence 14) [F0DB3F85]
Copy OK
Track 8
Filename C:\Hi there RIAA, What's up IFPI\Marilyn Manson - Antichrist Superstar\08 - Wormboy.wav
Peak level 99.9 %
Track quality 100.0 %
Test CRC 673C3265
Copy CRC 673C3265
Accurately ripped (confidence 14) [D9ABCDCD]
Copy OK
Track 9
Filename C:\Hi there RIAA, What's up IFPI\Marilyn Manson - Antichrist Superstar\09 - Mister Superstar.wav
Pre-gap length 0:00:00.01
Peak level 99.9 %
Track quality 100.0 %
Test CRC B9E075AC
Copy CRC B9E075AC
Accurately ripped (confidence 14) [EFAFCBEC]
Copy OK
Track 10
Filename C:\Hi there RIAA, What's up IFPI\Marilyn Manson - Antichrist Superstar\10 - Angel With The Scabbed Wings.wav
Pre-gap length 0:00:00.01
Peak level 99.9 %
Track quality 99.9 %
Test CRC E5838418
Copy CRC E5838418
Accurately ripped (confidence 14) [BA2019AF]
Copy OK
Track 11
Filename C:\Hi there RIAA, What's up IFPI\Marilyn Manson - Antichrist Superstar\11 - Kinderfeld.wav
Peak level 100.0 %
Track quality 100.0 %
Test CRC B4CC6466
Copy CRC B4CC6466
Accurately ripped (confidence 14) [654B0A33]
Copy OK
Track 12
Filename C:\Hi there RIAA, What's up IFPI\Marilyn Manson - Antichrist Superstar\12 - Antichrist Superstar.wav
Peak level 99.9 %
Track quality 100.0 %
Test CRC 5F79AC01
Copy CRC 5F79AC01
Accurately ripped (confidence 13) [8969D345]
Copy OK
Track 13
Filename C:\Hi there RIAA, What's up IFPI\Marilyn Manson - Antichrist Superstar\13 - 1996.wav
Pre-gap length 0:00:00.01
Peak level 99.9 %
Track quality 100.0 %
Test CRC 2C5CDECA
Copy CRC 2C5CDECA
Accurately ripped (confidence 13) [B66616E7]
Copy OK
Track 14
Filename C:\Hi there RIAA, What's up IFPI\Marilyn Manson - Antichrist Superstar\14 - Minute Of Decay.wav
Peak level 99.1 %
Track quality 100.0 %
Test CRC B4401B9E
Copy CRC B4401B9E
Accurately ripped (confidence 14) [7376584E]
Copy OK
Track 15
Filename C:\Hi there RIAA, What's up IFPI\Marilyn Manson - Antichrist Superstar\15 - The Reflecting God.wav
Peak level 99.9 %
Track quality 100.0 %
Test CRC E12544AA
Copy CRC E12544AA
Accurately ripped (confidence 12) [466F08C7]
Copy OK
Track 16
Filename C:\Hi there RIAA, What's up IFPI\Marilyn Manson - Antichrist Superstar\16 - Man That You Fear.wav
Peak level 99.9 %
Track quality 100.0 %
Test CRC 7BECD5AB
Copy CRC 7BECD5AB
Accurately ripped (confidence 11) [375CC1C5]
Copy OK
Track 17
Filename C:\Hi there RIAA, What's up IFPI\Marilyn Manson - Antichrist Superstar\17 - (Untitled).wav
Peak level 0.1 %
Track quality 100.0 %
Test CRC 6F5498E4
Copy CRC 6F5498E4
Track not present in AccurateRip database
Copy OK
Track 18
Filename C:\Hi there RIAA, What's up IFPI\Marilyn Manson - Antichrist Superstar\18 - (Untitled).wav
Pre-gap length 0:00:08.42
Peak level 0.0 %
Track quality 97.2 %
Test CRC 02864C0E
Copy CRC 02864C0E
Track not present in AccurateRip database
Copy OK
Track 19
Filename C:\Hi there RIAA, What's up IFPI\Marilyn Manson - Antichrist Superstar\19 - (Untitled).wav
Peak level 0.0 %
Track quality 97.2 %
Test CRC 02864C0E
Copy CRC 02864C0E
Track not present in AccurateRip database
Copy OK
Track 20
Filename C:\Hi there RIAA, What's up IFPI\Marilyn Manson - Antichrist Superstar\20 - (Untitled).wav
Peak level 0.0 %
Track quality 97.2 %
Test CRC 02864C0E
Copy CRC 02864C0E
Track not present in AccurateRip database
Copy OK
Track 21
Filename C:\Hi there RIAA, What's up IFPI\Marilyn Manson - Antichrist Superstar\21 - (Untitled).wav
Peak level 0.0 %
Track quality 97.2 %
Test CRC 02864C0E
Copy CRC 02864C0E
Track not present in AccurateRip database
Copy OK
Track 22
Filename C:\Hi there RIAA, What's up IFPI\Marilyn Manson - Antichrist Superstar\22 - (Untitled).wav
Peak level 0.0 %
Track quality 97.2 %
Test CRC 02864C0E
Copy CRC 02864C0E
Track not present in AccurateRip database
Copy OK
Track 23
Filename C:\Hi there RIAA, What's up IFPI\Marilyn Manson - Antichrist Superstar\23 - (Untitled).wav
Peak level 0.0 %
Track quality 97.2 %
Test CRC 02864C0E
Copy CRC 02864C0E
Track not present in AccurateRip database
Copy OK
Track 24
Filename C:\Hi there RIAA, What's up IFPI\Marilyn Manson - Antichrist Superstar\24 - (Untitled).wav
Peak level 0.0 %
Track quality 97.2 %
Test CRC 02864C0E
Copy CRC 02864C0E
Track not present in AccurateRip database
Copy OK
Track 25
Filename C:\Hi there RIAA, What's up IFPI\Marilyn Manson - Antichrist Superstar\25 - (Untitled).wav
Peak level 0.0 %
Track quality 97.2 %
Test CRC 02864C0E
Copy CRC 02864C0E
Track not present in AccurateRip database
Copy OK
Track 26
Filename C:\Hi there RIAA, What's up IFPI\Marilyn Manson - Antichrist Superstar\26 - (Untitled).wav
Peak level 0.0 %
Track quality 97.2 %
Test CRC 02864C0E
Copy CRC 02864C0E
Track not present in AccurateRip database
Copy OK
Track 27
Filename C:\Hi there RIAA, What's up IFPI\Marilyn Manson - Antichrist Superstar\27 - (Untitled).wav
Peak level 0.0 %
Track quality 97.2 %
Test CRC 02864C0E
Copy CRC 02864C0E
Track not present in AccurateRip database
Copy OK
Track 28
Filename C:\Hi there RIAA, What's up IFPI\Marilyn Manson - Antichrist Superstar\28 - (Untitled).wav
Peak level 0.0 %
Track quality 97.2 %
Test CRC 02864C0E
Copy CRC 02864C0E
Track not present in AccurateRip database
Copy OK
Track 29
Filename C:\Hi there RIAA, What's up IFPI\Marilyn Manson - Antichrist Superstar\29 - (Untitled).wav
Peak level 0.0 %
Track quality 97.2 %
Test CRC 02864C0E
Copy CRC 02864C0E
Track not present in AccurateRip database
Copy OK
Track 30
Filename C:\Hi there RIAA, What's up IFPI\Marilyn Manson - Antichrist Superstar\30 - (Untitled).wav
Peak level 0.0 %
Track quality 97.2 %
Test CRC 02864C0E
Copy CRC 02864C0E
Track not present in AccurateRip database
Copy OK
Track 31
Filename C:\Hi there RIAA, What's up IFPI\Marilyn Manson - Antichrist Superstar\31 - (Untitled).wav
Peak level 0.0 %
Track quality 97.2 %
Test CRC 02864C0E
Copy CRC 02864C0E
Track not present in AccurateRip database
Copy OK
Track 32
Filename C:\Hi there RIAA, What's up IFPI\Marilyn Manson - Antichrist Superstar\32 - (Untitled).wav
Peak level 0.0 %
Track quality 97.2 %
Test CRC 02864C0E
Copy CRC 02864C0E
Track not present in AccurateRip database
Copy OK
Track 33
Filename C:\Hi there RIAA, What's up IFPI\Marilyn Manson - Antichrist Superstar\33 - (Untitled).wav
Peak level 0.0 %
Track quality 97.2 %
Test CRC 02864C0E
Copy CRC 02864C0E
Track not present in AccurateRip database
Copy OK
Track 34
Filename C:\Hi there RIAA, What's up IFPI\Marilyn Manson - Antichrist Superstar\34 - (Untitled).wav
Peak level 0.0 %
Track quality 97.2 %
Test CRC 02864C0E
Copy CRC 02864C0E
Track not present in AccurateRip database
Copy OK
Track 35
Filename C:\Hi there RIAA, What's up IFPI\Marilyn Manson - Antichrist Superstar\35 - (Untitled).wav
Peak level 0.0 %
Track quality 97.2 %
Test CRC 02864C0E
Copy CRC 02864C0E
Track not present in AccurateRip database
Copy OK
Track 36
Filename C:\Hi there RIAA, What's up IFPI\Marilyn Manson - Antichrist Superstar\36 - (Untitled).wav
Peak level 0.0 %
Track quality 97.2 %
Test CRC 02864C0E
Copy CRC 02864C0E
Track not present in AccurateRip database
Copy OK
Track 37
Filename C:\Hi there RIAA, What's up IFPI\Marilyn Manson - Antichrist Superstar\37 - (Untitled).wav
Peak level 0.0 %
Track quality 97.2 %
Test CRC 02864C0E
Copy CRC 02864C0E
Track not present in AccurateRip database
Copy OK
Track 38
Filename C:\Hi there RIAA, What's up IFPI\Marilyn Manson - Antichrist Superstar\38 - (Untitled).wav
Peak level 0.0 %
Track quality 97.2 %
Test CRC 02864C0E
Copy CRC 02864C0E
Track not present in AccurateRip database
Copy OK
Track 39
Filename C:\Hi there RIAA, What's up IFPI\Marilyn Manson - Antichrist Superstar\39 - (Untitled).wav
Peak level 0.0 %
Track quality 97.2 %
Test CRC 02864C0E
Copy CRC 02864C0E
Track not present in AccurateRip database
Copy OK
Track 40
Filename C:\Hi there RIAA, What's up IFPI\Marilyn Manson - Antichrist Superstar\40 - (Untitled).wav
Peak level 0.0 %
Track quality 97.2 %
Test CRC 02864C0E
Copy CRC 02864C0E
Track not present in AccurateRip database
Copy OK
Track 41
Filename C:\Hi there RIAA, What's up IFPI\Marilyn Manson - Antichrist Superstar\41 - (Untitled).wav
Peak level 0.0 %
Track quality 97.2 %
Test CRC 02864C0E
Copy CRC 02864C0E
Track not present in AccurateRip database
Copy OK
Track 42
Filename C:\Hi there RIAA, What's up IFPI\Marilyn Manson - Antichrist Superstar\42 - (Untitled).wav
Peak level 0.0 %
Track quality 97.2 %
Test CRC 02864C0E
Copy CRC 02864C0E
Track not present in AccurateRip database
Copy OK
Track 43
Filename C:\Hi there RIAA, What's up IFPI\Marilyn Manson - Antichrist Superstar\43 - (Untitled).wav
Peak level 0.0 %
Track quality 97.2 %
Test CRC 02864C0E
Copy CRC 02864C0E
Track not present in AccurateRip database
Copy OK
Track 44
Filename C:\Hi there RIAA, What's up IFPI\Marilyn Manson - Antichrist Superstar\44 - (Untitled).wav
Peak level 0.0 %
Track quality 97.2 %
Test CRC 02864C0E
Copy CRC 02864C0E
Track not present in AccurateRip database
Copy OK
Track 45
Filename C:\Hi there RIAA, What's up IFPI\Marilyn Manson - Antichrist Superstar\45 - (Untitled).wav
Peak level 0.0 %
Track quality 97.2 %
Test CRC 02864C0E
Copy CRC 02864C0E
Track not present in AccurateRip database
Copy OK
Track 46
Filename C:\Hi there RIAA, What's up IFPI\Marilyn Manson - Antichrist Superstar\46 - (Untitled).wav
Peak level 0.0 %
Track quality 97.2 %
Test CRC 02864C0E
Copy CRC 02864C0E
Track not present in AccurateRip database
Copy OK
Track 47
Filename C:\Hi there RIAA, What's up IFPI\Marilyn Manson - Antichrist Superstar\47 - (Untitled).wav
Peak level 0.0 %
Track quality 97.2 %
Test CRC 02864C0E
Copy CRC 02864C0E
Track not present in AccurateRip database
Copy OK
Track 48
Filename C:\Hi there RIAA, What's up IFPI\Marilyn Manson - Antichrist Superstar\48 - (Untitled).wav
Peak level 0.0 %
Track quality 97.2 %
Test CRC 02864C0E
Copy CRC 02864C0E
Track not present in AccurateRip database
Copy OK
Track 49
Filename C:\Hi there RIAA, What's up IFPI\Marilyn Manson - Antichrist Superstar\49 - (Untitled).wav
Peak level 0.0 %
Track quality 97.2 %
Test CRC 02864C0E
Copy CRC 02864C0E
Track not present in AccurateRip database
Copy OK
Track 50
Filename C:\Hi there RIAA, What's up IFPI\Marilyn Manson - Antichrist Superstar\50 - (Untitled).wav
Peak level 0.0 %
Track quality 97.2 %
Test CRC 02864C0E
Copy CRC 02864C0E
Track not present in AccurateRip database
Copy OK
Track 51
Filename C:\Hi there RIAA, What's up IFPI\Marilyn Manson - Antichrist Superstar\51 - (Untitled).wav
Peak level 0.0 %
Track quality 97.2 %
Test CRC 02864C0E
Copy CRC 02864C0E
Track not present in AccurateRip database
Copy OK
Track 52
Filename C:\Hi there RIAA, What's up IFPI\Marilyn Manson - Antichrist Superstar\52 - (Untitled).wav
Peak level 0.0 %
Track quality 97.2 %
Test CRC 02864C0E
Copy CRC 02864C0E
Track not present in AccurateRip database
Copy OK
Track 53
Filename C:\Hi there RIAA, What's up IFPI\Marilyn Manson - Antichrist Superstar\53 - (Untitled).wav
Peak level 0.0 %
Track quality 97.2 %
Test CRC 02864C0E
Copy CRC 02864C0E
Track not present in AccurateRip database
Copy OK
Track 54
Filename C:\Hi there RIAA, What's up IFPI\Marilyn Manson - Antichrist Superstar\54 - (Untitled).wav
Peak level 0.0 %
Track quality 97.2 %
Test CRC 02864C0E
Copy CRC 02864C0E
Track not present in AccurateRip database
Copy OK
Track 55
Filename C:\Hi there RIAA, What's up IFPI\Marilyn Manson - Antichrist Superstar\55 - (Untitled).wav
Peak level 0.0 %
Track quality 97.2 %
Test CRC 02864C0E
Copy CRC 02864C0E
Track not present in AccurateRip database
Copy OK
Track 56
Filename C:\Hi there RIAA, What's up IFPI\Marilyn Manson - Antichrist Superstar\56 - (Untitled).wav
Peak level 0.0 %
Track quality 97.2 %
Test CRC 02864C0E
Copy CRC 02864C0E
Track not present in AccurateRip database
Copy OK
Track 57
Filename C:\Hi there RIAA, What's up IFPI\Marilyn Manson - Antichrist Superstar\57 - (Untitled).wav
Peak level 0.0 %
Track quality 97.2 %
Test CRC 02864C0E
Copy CRC 02864C0E
Track not present in AccurateRip database
Copy OK
Track 58
Filename C:\Hi there RIAA, What's up IFPI\Marilyn Manson - Antichrist Superstar\58 - (Untitled).wav
Peak level 0.0 %
Track quality 97.2 %
Test CRC 02864C0E
Copy CRC 02864C0E
Track not present in AccurateRip database
Copy OK
Track 59
Filename C:\Hi there RIAA, What's up IFPI\Marilyn Manson - Antichrist Superstar\59 - (Untitled).wav
Peak level 0.0 %
Track quality 97.2 %
Test CRC 02864C0E
Copy CRC 02864C0E
Track not present in AccurateRip database
Copy OK
Track 60
Filename C:\Hi there RIAA, What's up IFPI\Marilyn Manson - Antichrist Superstar\60 - (Untitled).wav
Peak level 0.0 %
Track quality 97.2 %
Test CRC 02864C0E
Copy CRC 02864C0E
Track not present in AccurateRip database
Copy OK
Track 61
Filename C:\Hi there RIAA, What's up IFPI\Marilyn Manson - Antichrist Superstar\61 - (Untitled).wav
Peak level 0.0 %
Track quality 97.2 %
Test CRC 02864C0E
Copy CRC 02864C0E
Track not present in AccurateRip database
Copy OK
Track 62
Filename C:\Hi there RIAA, What's up IFPI\Marilyn Manson - Antichrist Superstar\62 - (Untitled).wav
Peak level 0.0 %
Track quality 97.2 %
Test CRC 02864C0E
Copy CRC 02864C0E
Track not present in AccurateRip database
Copy OK
Track 63
Filename C:\Hi there RIAA, What's up IFPI\Marilyn Manson - Antichrist Superstar\63 - (Untitled).wav
Peak level 0.0 %
Track quality 97.2 %
Test CRC 02864C0E
Copy CRC 02864C0E
Track not present in AccurateRip database
Copy OK
Track 64
Filename C:\Hi there RIAA, What's up IFPI\Marilyn Manson - Antichrist Superstar\64 - (Untitled).wav
Peak level 0.0 %
Track quality 97.2 %
Test CRC 02864C0E
Copy CRC 02864C0E
Track not present in AccurateRip database
Copy OK
Track 65
Filename C:\Hi there RIAA, What's up IFPI\Marilyn Manson - Antichrist Superstar\65 - (Untitled).wav
Peak level 0.0 %
Track quality 97.2 %
Test CRC 02864C0E
Copy CRC 02864C0E
Track not present in AccurateRip database
Copy OK
Track 66
Filename C:\Hi there RIAA, What's up IFPI\Marilyn Manson - Antichrist Superstar\66 - (Untitled).wav
Peak level 0.0 %
Track quality 97.2 %
Test CRC 02864C0E
Copy CRC 02864C0E
Track not present in AccurateRip database
Copy OK
Track 67
Filename C:\Hi there RIAA, What's up IFPI\Marilyn Manson - Antichrist Superstar\67 - (Untitled).wav
Peak level 0.0 %
Track quality 97.2 %
Test CRC 02864C0E
Copy CRC 02864C0E
Track not present in AccurateRip database
Copy OK
Track 68
Filename C:\Hi there RIAA, What's up IFPI\Marilyn Manson - Antichrist Superstar\68 - (Untitled).wav
Peak level 0.0 %
Track quality 97.2 %
Test CRC 02864C0E
Copy CRC 02864C0E
Track not present in AccurateRip database
Copy OK
Track 69
Filename C:\Hi there RIAA, What's up IFPI\Marilyn Manson - Antichrist Superstar\69 - (Untitled).wav
Peak level 0.0 %
Track quality 97.2 %
Test CRC 02864C0E
Copy CRC 02864C0E
Track not present in AccurateRip database
Copy OK
Track 70
Filename C:\Hi there RIAA, What's up IFPI\Marilyn Manson - Antichrist Superstar\70 - (Untitled).wav
Peak level 0.0 %
Track quality 97.2 %
Test CRC 02864C0E
Copy CRC 02864C0E
Track not present in AccurateRip database
Copy OK
Track 71
Filename C:\Hi there RIAA, What's up IFPI\Marilyn Manson - Antichrist Superstar\71 - (Untitled).wav
Peak level 0.0 %
Track quality 97.2 %
Test CRC 02864C0E
Copy CRC 02864C0E
Track not present in AccurateRip database
Copy OK
Track 72
Filename C:\Hi there RIAA, What's up IFPI\Marilyn Manson - Antichrist Superstar\72 - (Untitled).wav
Peak level 0.0 %
Track quality 97.2 %
Test CRC 02864C0E
Copy CRC 02864C0E
Track not present in AccurateRip database
Copy OK
Track 73
Filename C:\Hi there RIAA, What's up IFPI\Marilyn Manson - Antichrist Superstar\73 - (Untitled).wav
Peak level 0.0 %
Track quality 97.2 %
Test CRC 02864C0E
Copy CRC 02864C0E
Track not present in AccurateRip database
Copy OK
Track 74
Filename C:\Hi there RIAA, What's up IFPI\Marilyn Manson - Antichrist Superstar\74 - (Untitled).wav
Peak level 0.0 %
Track quality 97.2 %
Test CRC 02864C0E
Copy CRC 02864C0E
Track not present in AccurateRip database
Copy OK
Track 75
Filename C:\Hi there RIAA, What's up IFPI\Marilyn Manson - Antichrist Superstar\75 - (Untitled).wav
Peak level 0.0 %
Track quality 97.2 %
Test CRC 02864C0E
Copy CRC 02864C0E
Track not present in AccurateRip database
Copy OK
Track 76
Filename C:\Hi there RIAA, What's up IFPI\Marilyn Manson - Antichrist Superstar\76 - (Untitled).wav
Peak level 0.0 %
Track quality 97.2 %
Test CRC 02864C0E
Copy CRC 02864C0E
Track not present in AccurateRip database
Copy OK
Track 77
Filename C:\Hi there RIAA, What's up IFPI\Marilyn Manson - Antichrist Superstar\77 - (Untitled).wav
Peak level 0.0 %
Track quality 97.2 %
Test CRC 02864C0E
Copy CRC 02864C0E
Track not present in AccurateRip database
Copy OK
Track 78
Filename C:\Hi there RIAA, What's up IFPI\Marilyn Manson - Antichrist Superstar\78 - (Untitled).wav
Peak level 0.0 %
Track quality 97.2 %
Test CRC 02864C0E
Copy CRC 02864C0E
Track not present in AccurateRip database
Copy OK
Track 79
Filename C:\Hi there RIAA, What's up IFPI\Marilyn Manson - Antichrist Superstar\79 - (Untitled).wav
Peak level 0.0 %
Track quality 97.2 %
Test CRC 02864C0E
Copy CRC 02864C0E
Track not present in AccurateRip database
Copy OK
Track 80
Filename C:\Hi there RIAA, What's up IFPI\Marilyn Manson - Antichrist Superstar\80 - (Untitled).wav
Peak level 0.0 %
Track quality 97.2 %
Test CRC 02864C0E
Copy CRC 02864C0E
Track not present in AccurateRip database
Copy OK
Track 81
Filename C:\Hi there RIAA, What's up IFPI\Marilyn Manson - Antichrist Superstar\81 - (Untitled).wav
Peak level 0.0 %
Track quality 97.2 %
Test CRC 02864C0E
Copy CRC 02864C0E
Track not present in AccurateRip database
Copy OK
Track 82
Filename C:\Hi there RIAA, What's up IFPI\Marilyn Manson - Antichrist Superstar\82 - (Untitled).wav
Peak level 0.0 %
Track quality 97.2 %
Test CRC 02864C0E
Copy CRC 02864C0E
Track not present in AccurateRip database
Copy OK
Track 83
Filename C:\Hi there RIAA, What's up IFPI\Marilyn Manson - Antichrist Superstar\83 - (Untitled).wav
Peak level 0.0 %
Track quality 97.2 %
Test CRC 02864C0E
Copy CRC 02864C0E
Track not present in AccurateRip database
Copy OK
Track 84
Filename C:\Hi there RIAA, What's up IFPI\Marilyn Manson - Antichrist Superstar\84 - (Untitled).wav
Peak level 0.0 %
Track quality 97.2 %
Test CRC 02864C0E
Copy CRC 02864C0E
Track not present in AccurateRip database
Copy OK
Track 85
Filename C:\Hi there RIAA, What's up IFPI\Marilyn Manson - Antichrist Superstar\85 - (Untitled).wav
Peak level 0.0 %
Track quality 97.2 %
Test CRC 02864C0E
Copy CRC 02864C0E
Track not present in AccurateRip database
Copy OK
Track 86
Filename C:\Hi there RIAA, What's up IFPI\Marilyn Manson - Antichrist Superstar\86 - (Untitled).wav
Peak level 0.0 %
Track quality 97.2 %
Test CRC 02864C0E
Copy CRC 02864C0E
Track not present in AccurateRip database
Copy OK
Track 87
Filename C:\Hi there RIAA, What's up IFPI\Marilyn Manson - Antichrist Superstar\87 - (Untitled).wav
Peak level 0.0 %
Track quality 97.2 %
Test CRC 02864C0E
Copy CRC 02864C0E
Track not present in AccurateRip database
Copy OK
Track 88
Filename C:\Hi there RIAA, What's up IFPI\Marilyn Manson - Antichrist Superstar\88 - (Untitled).wav
Peak level 0.0 %
Track quality 97.2 %
Test CRC 02864C0E
Copy CRC 02864C0E
Track not present in AccurateRip database
Copy OK
Track 89
Filename C:\Hi there RIAA, What's up IFPI\Marilyn Manson - Antichrist Superstar\89 - (Untitled).wav
Peak level 0.0 %
Track quality 97.2 %
Test CRC 02864C0E
Copy CRC 02864C0E
Track not present in AccurateRip database
Copy OK
Track 90
Filename C:\Hi there RIAA, What's up IFPI\Marilyn Manson - Antichrist Superstar\90 - (Untitled).wav
Peak level 0.0 %
Track quality 97.2 %
Test CRC 02864C0E
Copy CRC 02864C0E
Track not present in AccurateRip database
Copy OK
Track 91
Filename C:\Hi there RIAA, What's up IFPI\Marilyn Manson - Antichrist Superstar\91 - (Untitled).wav
Peak level 0.0 %
Track quality 97.2 %
Test CRC 02864C0E
Copy CRC 02864C0E
Track not present in AccurateRip database
Copy OK
Track 92
Filename C:\Hi there RIAA, What's up IFPI\Marilyn Manson - Antichrist Superstar\92 - (Untitled).wav
Peak level 0.0 %
Track quality 97.2 %
Test CRC 02864C0E
Copy CRC 02864C0E
Track not present in AccurateRip database
Copy OK
Track 93
Filename C:\Hi there RIAA, What's up IFPI\Marilyn Manson - Antichrist Superstar\93 - (Untitled).wav
Peak level 0.0 %
Track quality 97.2 %
Test CRC 02864C0E
Copy CRC 02864C0E
Track not present in AccurateRip database
Copy OK
Track 94
Filename C:\Hi there RIAA, What's up IFPI\Marilyn Manson - Antichrist Superstar\94 - (Untitled).wav
Peak level 0.0 %
Track quality 97.2 %
Test CRC 02864C0E
Copy CRC 02864C0E
Track not present in AccurateRip database
Copy OK
Track 95
Filename C:\Hi there RIAA, What's up IFPI\Marilyn Manson - Antichrist Superstar\95 - (Untitled).wav
Peak level 0.0 %
Track quality 97.2 %
Test CRC 02864C0E
Copy CRC 02864C0E
Track not present in AccurateRip database
Copy OK
Track 96
Filename C:\Hi there RIAA, What's up IFPI\Marilyn Manson - Antichrist Superstar\96 - (Untitled).wav
Peak level 0.0 %
Track quality 97.2 %
Test CRC 02864C0E
Copy CRC 02864C0E
Track not present in AccurateRip database
Copy OK
Track 97
Filename C:\Hi there RIAA, What's up IFPI\Marilyn Manson - Antichrist Superstar\97 - (Untitled).wav
Peak level 0.0 %
Track quality 97.2 %
Test CRC 02864C0E
Copy CRC 02864C0E
Track not present in AccurateRip database
Copy OK
Track 98
Filename C:\Hi there RIAA, What's up IFPI\Marilyn Manson - Antichrist Superstar\98 - (Untitled).wav
Peak level 0.0 %
Track quality 100.0 %
Test CRC 79914BAF
Copy CRC 79914BAF
Track not present in AccurateRip database
Copy OK
Track 99
Filename C:\Hi there RIAA, What's up IFPI\Marilyn Manson - Antichrist Superstar\99 - (Untitled).wav
Peak level 23.5 %
Track quality 100.0 %
Test CRC 78821FD1
Copy CRC 78821FD1
Accurately ripped (confidence 6) [42C998B3]
Copy OK
17 track(s) accurately ripped
82 track(s) not present in the AccurateRip database
Some tracks could not be verified as accurate
No errors occurred
End of status report

1998 - Mechanical Animals

01. Great Big White World (5:01)
02. The Dope Show (3:47)
03. Mechanical Animals (4:33)
04. Rock Is Dead (3:10)
05. Disassociative (4:50)
06. The Speed Of Pain (5:30)
07. Posthuman (4:18)
08. I Want To Disappear (2:57)
09. I Don't Like The Drugs (But The Drugs Like Me) (5:04)
10. New Model No. 15 (3:41)
11. User Friendly (4:17)
12. Fundamentally Loathsome (4:50)
13. The Last Day On Earth (5:01)
14. Coma White (5:38)

EAC LOG

Exact Audio Copy V0.99 prebeta 4 from 23. January 2008
EAC extraction logfile from 28. January 2009, 16:53
Marilyn Manson / Mechanical Animals
Used drive : HL-DT-STDVDRRW GSA-H30L Adapter: 0 ID: 1
Read mode : Secure
Utilize accurate stream : Yes
Defeat audio cache : Yes
Make use of C2 pointers : No
Read offset correction : 102
Overread into Lead-In and Lead-Out : No
Fill up missing offset samples with silence : Yes
Delete leading and trailing silent blocks : No
Null samples used in CRC calculations : Yes
Used interface : Native Win32 interface for Win NT & 2000
Gap handling : Appended to previous track
Used output format : User Defined Encoder
Selected bitrate : 192 kBit/s
Quality : High
Add ID3 tag : No
Command line compressor : C:\Program Files\FLAC\flac.exe
Additional command line options : -V -8 -T "artist=%a" -T "title=%t" -T "album=%g" -T "date=%y" -T "tracknumber=%n" -T "genre=%m" %s
TOC of the extracted CD
Track | Start | Length | Start sector | End sector
---------------------------------------------------------
1 | 0:00.00 | 5:01.22 | 0 | 22596
2 | 5:01.22 | 3:46.55 | 22597 | 39601
3 | 8:48.02 | 4:33.28 | 39602 | 60104
4 | 13:21.30 | 3:09.60 | 60105 | 74339
5 | 16:31.15 | 4:50.37 | 74340 | 96126
6 | 21:21.52 | 5:30.00 | 96127 | 120876
7 | 26:51.52 | 4:17.48 | 120877 | 140199
8 | 31:09.25 | 2:56.52 | 140200 | 153451
9 | 34:06.02 | 5:03.38 | 153452 | 176214
10 | 39:09.40 | 3:40.60 | 176215 | 192774
11 | 42:50.25 | 4:17.27 | 192775 | 212076
12 | 47:07.52 | 4:49.55 | 212077 | 233806
13 | 51:57.32 | 5:01.08 | 233807 | 256389
14 | 56:58.40 | 5:38.25 | 256390 | 281764
Track 1
Filename F:\Torrents\Downloads\Marilyn Manson - Mechanical Animals (1998) [FLAC]\01 - Great Big White World.wav
Pre-gap length 0:00:02.00
Peak level 99.8 %
Track quality 100.0 %
Test CRC 419E901B
Copy CRC 419E901B
Accurately ripped (confidence 16) [89A06AE7]
Copy OK
Track 2
Filename F:\Torrents\Downloads\Marilyn Manson - Mechanical Animals (1998) [FLAC]\02 - The Dope Show.wav
Peak level 99.8 %
Track quality 100.0 %
Test CRC 0EE9DEE5
Copy CRC 0EE9DEE5
Accurately ripped (confidence 15) [55496FC6]
Copy OK
Track 3
Filename F:\Torrents\Downloads\Marilyn Manson - Mechanical Animals (1998) [FLAC]\03 - Mechanical Animals.wav
Peak level 99.8 %
Track quality 100.0 %
Test CRC 63283AC0
Copy CRC 63283AC0
Accurately ripped (confidence 16) [BC2F7303]
Copy OK
Track 4
Filename F:\Torrents\Downloads\Marilyn Manson - Mechanical Animals (1998) [FLAC]\04 - Rock Is Dead.wav
Peak level 99.8 %
Track quality 100.0 %
Test CRC 37042D74
Copy CRC 37042D74
Accurately ripped (confidence 16) [3E4668DE]
Copy OK
Track 5
Filename F:\Torrents\Downloads\Marilyn Manson - Mechanical Animals (1998) [FLAC]\05 - Disassociative.wav
Peak level 99.8 %
Track quality 100.0 %
Test CRC 2FB831D0
Copy CRC 2FB831D0
Accurately ripped (confidence 16) [7351F6B2]
Copy OK
Track 6
Filename F:\Torrents\Downloads\Marilyn Manson - Mechanical Animals (1998) [FLAC]\06 - The Speed Of Pain.wav
Peak level 99.8 %
Track quality 100.0 %
Test CRC FB407584
Copy CRC FB407584
Accurately ripped (confidence 16) [78CB665D]
Copy OK
Track 7
Filename F:\Torrents\Downloads\Marilyn Manson - Mechanical Animals (1998) [FLAC]\07 - Posthuman.wav
Peak level 99.8 %
Track quality 100.0 %
Test CRC 1AA3431E
Copy CRC 1AA3431E
Accurately ripped (confidence 16) [D4722D21]
Copy OK
Track 8
Filename F:\Torrents\Downloads\Marilyn Manson - Mechanical Animals (1998) [FLAC]\08 - I Want To Disappear.wav
Peak level 99.8 %
Track quality 100.0 %
Test CRC 2A75CAAF
Copy CRC 2A75CAAF
Accurately ripped (confidence 16) [464C50AD]
Copy OK
Track 9
Filename F:\Torrents\Downloads\Marilyn Manson - Mechanical Animals (1998) [FLAC]\09 - I Don't Like The Drugs (But The Drugs Like Me).wav
Peak level 99.8 %
Track quality 99.9 %
Test CRC 7A538947
Copy CRC 7A538947
Accurately ripped (confidence 16) [24066536]
Copy OK
Track 10
Filename F:\Torrents\Downloads\Marilyn Manson - Mechanical Animals (1998) [FLAC]\10 - New Model No. 15.wav
Peak level 99.8 %
Track quality 99.9 %
Test CRC D667B07D
Copy CRC D667B07D
Accurately ripped (confidence 16) [96CD1DBE]
Copy OK
Track 11
Filename F:\Torrents\Downloads\Marilyn Manson - Mechanical Animals (1998) [FLAC]\11 - User Friendly.wav
Peak level 99.8 %
Track quality 99.9 %
Test CRC 9E08DB1A
Copy CRC 9E08DB1A
Accurately ripped (confidence 16) [ECF7BDAF]
Copy OK
Track 12
Filename F:\Torrents\Downloads\Marilyn Manson - Mechanical Animals (1998) [FLAC]\12 - Fundamentally Loathsome.wav
Peak level 99.8 %
Track quality 100.0 %
Test CRC A0532CCF
Copy CRC A0532CCF
Accurately ripped (confidence 16) [65D1545C]
Copy OK
Track 13
Filename F:\Torrents\Downloads\Marilyn Manson - Mechanical Animals (1998) [FLAC]\13 - The Last Day On Earth.wav
Peak level 99.8 %
Track quality 100.0 %
Test CRC 682970CF
Copy CRC 682970CF
Accurately ripped (confidence 16) [499296D4]
Copy OK
Track 14
Filename F:\Torrents\Downloads\Marilyn Manson - Mechanical Animals (1998) [FLAC]\14 - Coma White.wav
Peak level 99.8 %
Track quality 100.0 %
Test CRC 559AE398
Copy CRC 559AE398
Accurately ripped (confidence 16) [1BC3B137]
Copy OK
All tracks accurately ripped
No errors occurred
End of status report

1999 - The Last Tour On Earth

01. Inauguration Of The Mechanical Christ (2:45)
02. The Reflecting God (5:32)
03. Great Big White World (5:22)
04. Get Your Gunn (3:37)
05. Sweet Dreams / Hell Outro (5:36)
06. Rock Is Dead (3:20)
07. The Dope Show (3:57)
08. Lunchbox (8:36)
09. I Don't Like The Drugs (But The Drugs Like Me) (7:32)
10. Antichrist Superstar (5:16)
11. The Beautiful People (4:30)
12. Irresponsible Hate Anthem (4:41)
13. The Last Day On Earth (4:27)
14. Astonishing Panorama Of The Endtimes (3:59)

EAC LOG

Exact Audio Copy V0.99 prebeta 4 from 23. January 2008
EAC extraction logfile from 23. May 2008, 14:24
Marilyn Manson / The Last Tour On Earth
Used drive : TOSHIBA ODD-DVD SD-R6372 Adapter: 1 ID: 0
Read mode : Secure
Utilize accurate stream : Yes
Defeat audio cache : Yes
Make use of C2 pointers : No
Read offset correction : 116
Overread into Lead-In and Lead-Out : No
Fill up missing offset samples with silence : Yes
Delete leading and trailing silent blocks : No
Null samples used in CRC calculations : Yes
Used interface : Native Win32 interface for Win NT & 2000
Gap handling : Appended to previous track
Used output format : User Defined Encoder
Selected bitrate : 768 kBit/s
Quality : High
Add ID3 tag : No
Command line compressor : C:\Program Files\FLAC\flac.exe
Additional command line options : -V -8 -T "artist=%a" -T "title=%t" -T "album=%g" -T "date=%y" -T "tracknumber=%n" %s
TOC of the extracted CD
Track | Start | Length | Start sector | End sector
---------------------------------------------------------
1 | 0:00.00 | 2:45.20 | 0 | 12394
2 | 2:45.20 | 5:32.07 | 12395 | 37301
3 | 8:17.27 | 5:21.70 | 37302 | 61446
4 | 13:39.22 | 3:37.08 | 61447 | 77729
5 | 17:16.30 | 5:36.25 | 77730 | 102954
6 | 22:52.55 | 3:20.02 | 102955 | 117956
7 | 26:12.57 | 3:56.70 | 117957 | 135726
8 | 30:09.52 | 8:35.65 | 135727 | 174416
9 | 38:45.42 | 7:31.43 | 174417 | 208284
10 | 46:17.10 | 5:15.70 | 208285 | 231979
11 | 51:33.05 | 4:30.17 | 231980 | 252246
12 | 56:03.22 | 4:40.40 | 252247 | 273286
13 | 60:43.62 | 4:26.55 | 273287 | 293291
14 | 65:10.42 | 3:59.30 | 293292 | 311246
Track 1
Filename C:\Hi there RIAA, What's up IFPI\Marilyn Manson - The Last Tour On Earth\01 - Inauguration Of The Mechanical Christ.wav
Pre-gap length 0:00:02.00
Peak level 59.2 %
Track quality 100.0 %
Test CRC 8929DF31
Copy CRC 8929DF31
Cannot be verified as accurate (confidence 10) [3D3CE7D4], AccurateRip returned [8EF68C0C]
Copy OK
Track 2
Filename C:\Hi there RIAA, What's up IFPI\Marilyn Manson - The Last Tour On Earth\02 - The Reflecting God.wav
Peak level 99.8 %
Track quality 100.0 %
Test CRC 72BCD828
Copy CRC 72BCD828
Cannot be verified as accurate (confidence 10) [D7BED6B7], AccurateRip returned [CA737D95]
Copy OK
Track 3
Filename C:\Hi there RIAA, What's up IFPI\Marilyn Manson - The Last Tour On Earth\03 - Great Big White World.wav
Peak level 99.8 %
Track quality 100.0 %
Test CRC 2629E82B
Copy CRC 2629E82B
Cannot be verified as accurate (confidence 10) [81F4B5A1], AccurateRip returned [2FD7F491]
Copy OK
Track 4
Filename C:\Hi there RIAA, What's up IFPI\Marilyn Manson - The Last Tour On Earth\04 - Get Your Gunn.wav
Peak level 99.8 %
Track quality 100.0 %
Test CRC 3EC794F9
Copy CRC 3EC794F9
Cannot be verified as accurate (confidence 10) [324DBF8B], AccurateRip returned [018168A7]
Copy OK
Track 5
Filename C:\Hi there RIAA, What's up IFPI\Marilyn Manson - The Last Tour On Earth\05 - Sweet Dreams , Hell Outro.wav
Peak level 99.8 %
Track quality 100.0 %
Test CRC 0473F24B
Copy CRC 0473F24B
Cannot be verified as accurate (confidence 9) [A77B032E], AccurateRip returned [60A4FA74]
Copy OK
Track 6
Filename C:\Hi there RIAA, What's up IFPI\Marilyn Manson - The Last Tour On Earth\06 - Rock Is Dead.wav
Peak level 99.8 %
Track quality 100.0 %
Test CRC 590AC7E1
Copy CRC 590AC7E1
Cannot be verified as accurate (confidence 10) [01C1CCF1], AccurateRip returned [8855001E]
Copy OK
Track 7
Filename C:\Hi there RIAA, What's up IFPI\Marilyn Manson - The Last Tour On Earth\07 - The Dope Show.wav
Peak level 99.8 %
Track quality 100.0 %
Test CRC 76335EE7
Copy CRC 76335EE7
Cannot be verified as accurate (confidence 10) [8FFC3332], AccurateRip returned [289971FB]
Copy OK
Track 8
Filename C:\Hi there RIAA, What's up IFPI\Marilyn Manson - The Last Tour On Earth\08 - Lunchbox.wav
Peak level 99.8 %
Track quality 100.0 %
Test CRC 33F1097D
Copy CRC 33F1097D
Cannot be verified as accurate (confidence 10) [9752D6F2], AccurateRip returned [5611BD9C]
Copy OK
Track 9
Filename C:\Hi there RIAA, What's up IFPI\Marilyn Manson - The Last Tour On Earth\09 - I Don't Like The Drugs (But The Drugs Like Me).wav
Peak level 99.8 %
Track quality 100.0 %
Test CRC 2B8E16D7
Copy CRC 2B8E16D7
Cannot be verified as accurate (confidence 10) [58A8DD9B], AccurateRip returned [7A4DA30D]
Copy OK
Track 10
Filename C:\Hi there RIAA, What's up IFPI\Marilyn Manson - The Last Tour On Earth\10 - Antichrist Superstar.wav
Peak level 99.8 %
Track quality 100.0 %
Test CRC EABD8791
Copy CRC EABD8791
Cannot be verified as accurate (confidence 10) [6BC743A4], AccurateRip returned [044F78BB]
Copy OK
Track 11
Filename C:\Hi there RIAA, What's up IFPI\Marilyn Manson - The Last Tour On Earth\11 - The Beautiful People.wav
Peak level 99.8 %
Track quality 100.0 %
Test CRC 5C477D80
Copy CRC 5C477D80
Cannot be verified as accurate (confidence 10) [6024EEFD], AccurateRip returned [5D4C85BD]
Copy OK
Track 12
Filename C:\Hi there RIAA, What's up IFPI\Marilyn Manson - The Last Tour On Earth\12 - Irresponsible Hate Anthem.wav
Peak level 99.8 %
Track quality 100.0 %
Test CRC FD142D8B
Copy CRC FD142D8B
Cannot be verified as accurate (confidence 10) [F74D4813], AccurateRip returned [5C5770A0]
Copy OK
Track 13
Filename C:\Hi there RIAA, What's up IFPI\Marilyn Manson - The Last Tour On Earth\13 - The Last Day On Earth.wav
Peak level 99.8 %
Track quality 100.0 %
Test CRC 31B9C82C
Copy CRC 31B9C82C
Cannot be verified as accurate (confidence 10) [B3E71C75], AccurateRip returned [BA6E20B2]
Copy OK
Track 14
Filename C:\Hi there RIAA, What's up IFPI\Marilyn Manson - The Last Tour On Earth\14 - Astonishing Panorama Of The Endtimes.wav
Pre-gap length 0:00:02.39
Peak level 99.8 %
Track quality 99.9 %
Test CRC 2B48392E
Copy CRC 2B48392E
Cannot be verified as accurate (confidence 10) [0D1DAB4C], AccurateRip returned [5EFF8EEB]
Copy OK
No tracks could be verified as accurate
You may have a different pressing from the one(s) in the database
No errors occurred
End of status report

2000 - Holy Wood (In The Shadow Of The Valley Of Death)

01. Godeatgod (2:34)
02. The Love Song (3:17)
03. The Fight Song (2:56)
04. Disposable Teens (3:02)
05. Target Audience (Narcissus Narcosis) (4:18)
06. 'President Dead' (3:13)
07. In The Shadow Of The Valley Of Death (4:10)
08. Cruci-Fiction In Space (4:56)
09. A Place In The Dirt (3:37)
10. The Nobodies (3:35)
11. The Death Song (3:30)
12. Lamb Of God (4:40)
13. Born Again (3:21)
14. Burning Flag (3:21)
15. Coma Black a) Eden Eye b) The Apple Of Discord (5:59)
16. Valentine's Day (3:32)
17. The Fall Of Adam (2:34)
18. King Kill 33° (2:18)
19. Count To Six And Die (The Vaccuum Of Infinite Space Encompassing) (3:23)

EAC LOG

Exact Audio Copy V0.99 prebeta 4 from 23. January 2008
EAC extraction logfile from 23. May 2008, 17:50
Marilyn Manson / Holy Wood (In The Shadow Of The Valley Of Death)
Used drive : TOSHIBA ODD-DVD SD-R6372 Adapter: 1 ID: 0
Read mode : Secure
Utilize accurate stream : Yes
Defeat audio cache : Yes
Make use of C2 pointers : No
Read offset correction : 116
Overread into Lead-In and Lead-Out : No
Fill up missing offset samples with silence : Yes
Delete leading and trailing silent blocks : No
Null samples used in CRC calculations : Yes
Used interface : Native Win32 interface for Win NT & 2000
Gap handling : Appended to previous track
Used output format : User Defined Encoder
Selected bitrate : 768 kBit/s
Quality : High
Add ID3 tag : No
Command line compressor : C:\Program Files\FLAC\flac.exe
Additional command line options : -V -8 -T "artist=%a" -T "title=%t" -T "album=%g" -T "date=%y" -T "tracknumber=%n" %s
TOC of the extracted CD
Track | Start | Length | Start sector | End sector
---------------------------------------------------------
1 | 0:00.00 | 2:34.15 | 0 | 11564
2 | 2:34.15 | 3:16.40 | 11565 | 26304
3 | 5:50.55 | 2:55.57 | 26305 | 39486
4 | 8:46.37 | 3:01.38 | 39487 | 53099
5 | 11:48.00 | 4:18.30 | 53100 | 72479
6 | 16:06.30 | 3:13.22 | 72480 | 86976
7 | 19:19.52 | 4:09.40 | 86977 | 105691
8 | 23:29.17 | 4:56.28 | 105692 | 127919
9 | 28:25.45 | 3:37.30 | 127920 | 144224
10 | 32:03.00 | 3:35.32 | 144225 | 160381
11 | 35:38.32 | 3:29.73 | 160382 | 176129
12 | 39:08.30 | 4:39.70 | 176130 | 197124
13 | 43:48.25 | 3:20.60 | 197125 | 212184
14 | 47:09.10 | 3:21.37 | 212185 | 227296
15 | 50:30.47 | 5:58.53 | 227297 | 254199
16 | 56:29.25 | 3:31.60 | 254200 | 270084
17 | 60:01.10 | 2:34.27 | 270085 | 281661
18 | 62:35.37 | 2:18.25 | 281662 | 292036
19 | 64:53.62 | 3:23.25 | 292037 | 307286
20 | 70:49.12 | 0:44.40 | 318687 | 322026
Track 1
Filename C:\Hi there RIAA, What's up IFPI\Marilyn Manson - Holy Wood (In The Shadow Of The Valley Of Death)\01 - Godeatgod.wav
Pre-gap length 0:00:02.00
Peak level 88.1 %
Track quality 100.0 %
Test CRC 696950E7
Copy CRC 696950E7
Accurately ripped (confidence 3) [25672BBB]
Copy OK
Track 2
Filename C:\Hi there RIAA, What's up IFPI\Marilyn Manson - Holy Wood (In The Shadow Of The Valley Of Death)\02 - The Love Song.wav
Peak level 99.8 %
Track quality 100.0 %
Test CRC 35CC471E
Copy CRC 35CC471E
Accurately ripped (confidence 3) [90DCBBA7]
Copy OK
Track 3
Filename C:\Hi there RIAA, What's up IFPI\Marilyn Manson - Holy Wood (In The Shadow Of The Valley Of Death)\03 - The Fight Song.wav
Peak level 99.8 %
Track quality 100.0 %
Test CRC 5676A145
Copy CRC 5676A145
Accurately ripped (confidence 3) [3D592774]
Copy OK
Track 4
Filename C:\Hi there RIAA, What's up IFPI\Marilyn Manson - Holy Wood (In The Shadow Of The Valley Of Death)\04 - Disposable Teens.wav
Peak level 99.8 %
Track quality 100.0 %
Test CRC EA7B6979
Copy CRC EA7B6979
Accurately ripped (confidence 3) [83CB90E2]
Copy OK
Track 5
Filename C:\Hi there RIAA, What's up IFPI\Marilyn Manson - Holy Wood (In The Shadow Of The Valley Of Death)\05 - Target Audience (Narcissus Narcosis).wav
Peak level 99.8 %
Track quality 100.0 %
Test CRC 25C34EA2
Copy CRC 25C34EA2
Accurately ripped (confidence 3) [969E0010]
Copy OK
Track 6
Filename C:\Hi there RIAA, What's up IFPI\Marilyn Manson - Holy Wood (In The Shadow Of The Valley Of Death)\06 - 'President Dead'.wav
Peak level 99.7 %
Track quality 100.0 %
Test CRC 7E6A35CB
Copy CRC 7E6A35CB
Accurately ripped (confidence 3) [5B6ABD75]
Copy OK
Track 7
Filename C:\Hi there RIAA, What's up IFPI\Marilyn Manson - Holy Wood (In The Shadow Of The Valley Of Death)\07 - In The Shadow Of The Valley Of Death.wav
Peak level 99.8 %
Track quality 100.0 %
Test CRC 5D28FBA5
Copy CRC 5D28FBA5
Accurately ripped (confidence 3) [118C8B68]
Copy OK
Track 8
Filename C:\Hi there RIAA, What's up IFPI\Marilyn Manson - Holy Wood (In The Shadow Of The Valley Of Death)\08 - Cruci-Fiction In Space.wav
Pre-gap length 0:00:01.50
Peak level 99.8 %
Track quality 100.0 %
Test CRC 4E193CE1
Copy CRC 4E193CE1
Accurately ripped (confidence 3) [5BA58C4C]
Copy OK
Track 9
Filename C:\Hi there RIAA, What's up IFPI\Marilyn Manson - Holy Wood (In The Shadow Of The Valley Of Death)\09 - A Place In The Dirt.wav
Peak level 99.8 %
Track quality 100.0 %
Test CRC E96E6862
Copy CRC E96E6862
Accurately ripped (confidence 3) [A43B53D5]
Copy OK
Track 10
Filename C:\Hi there RIAA, What's up IFPI\Marilyn Manson - Holy Wood (In The Shadow Of The Valley Of Death)\10 - The Nobodies.wav
Peak level 99.8 %
Track quality 100.0 %
Test CRC 51396816
Copy CRC 51396816
Accurately ripped (confidence 3) [E0700D67]
Copy OK
Track 11
Filename C:\Hi there RIAA, What's up IFPI\Marilyn Manson - Holy Wood (In The Shadow Of The Valley Of Death)\11 - The Death Song.wav
Peak level 99.8 %
Track quality 100.0 %
Test CRC F1B0ECAE
Copy CRC F1B0ECAE
Accurately ripped (confidence 3) [AFD536AB]
Copy OK
Track 12
Filename C:\Hi there RIAA, What's up IFPI\Marilyn Manson - Holy Wood (In The Shadow Of The Valley Of Death)\12 - Lamb Of God.wav
Peak level 99.8 %
Track quality 99.9 %
Test CRC E6485580
Copy CRC E6485580
Accurately ripped (confidence 3) [6C16E0E0]
Copy OK
Track 13
Filename C:\Hi there RIAA, What's up IFPI\Marilyn Manson - Holy Wood (In The Shadow Of The Valley Of Death)\13 - Born Again.wav
Peak level 99.8 %
Track quality 100.0 %
Test CRC 40555B6B
Copy CRC 40555B6B
Accurately ripped (confidence 3) [7A21B644]
Copy OK
Track 14
Filename C:\Hi there RIAA, What's up IFPI\Marilyn Manson - Holy Wood (In The Shadow Of The Valley Of Death)\14 - Burning Flag.wav
Peak level 94.4 %
Track quality 100.0 %
Test CRC 5EDB62A8
Copy CRC 5EDB62A8
Accurately ripped (confidence 3) [D907FD39]
Copy OK
Track 15
Filename C:\Hi there RIAA, What's up IFPI\Marilyn Manson - Holy Wood (In The Shadow Of The Valley Of Death)\15 - Coma Black a) Eden Eye b) The Apple Of Discord.wav
Peak level 99.8 %
Track quality 100.0 %
Test CRC 2588115B
Copy CRC 2588115B
Accurately ripped (confidence 3) [DDE06852]
Copy OK
Track 16
Filename C:\Hi there RIAA, What's up IFPI\Marilyn Manson - Holy Wood (In The Shadow Of The Valley Of Death)\16 - Valentine's Day.wav
Peak level 99.8 %
Track quality 100.0 %
Test CRC D71F2833
Copy CRC D71F2833
Accurately ripped (confidence 3) [F7C4E211]
Copy OK
Track 17
Filename C:\Hi there RIAA, What's up IFPI\Marilyn Manson - Holy Wood (In The Shadow Of The Valley Of Death)\17 - The Fall Of Adam.wav
Peak level 99.8 %
Track quality 100.0 %
Test CRC C27FBE9E
Copy CRC C27FBE9E
Accurately ripped (confidence 3) [937D2666]
Copy OK
Track 18
Filename C:\Hi there RIAA, What's up IFPI\Marilyn Manson - Holy Wood (In The Shadow Of The Valley Of Death)\18 - King Kill 33°.wav
Peak level 96.2 %
Track quality 100.0 %
Test CRC FC0E4094
Copy CRC FC0E4094
Accurately ripped (confidence 3) [F8D78638]
Copy OK
Track 19
Filename C:\Hi there RIAA, What's up IFPI\Marilyn Manson - Holy Wood (In The Shadow Of The Valley Of Death)\19 - Count To Six And Die (The Vaccuum Of Infinite Space Encompassing).wav
Peak level 94.8 %
Track quality 100.0 %
Test CRC A14807A3
Copy CRC A14807A3
Accurately ripped (confidence 3) [13FEC692]
Copy OK
All tracks accurately ripped
No errors occurred
End of status report

2003 - The Golden Age Of Grotesque

01. Thaeter (1:14)
02. This Is The New Shit (4:20)
03. Mobscene (3:26)
04. Doll-Dagga Buzz-Buzz Ziggety-Zag (4:11)
05. Use Your Fist And Not Your Mouth (3:35)
06. The Golden Age Of Grotesque (4:05)
07. (S)aint (3:42)
08. Ka-Boom Ka-Boom (4:03)
09. Slutgarden (4:07)
10. Spade (4:35)
11. Para-Noir (6:01)
12. The Bright Young Things (4:19)
13. Better Of Two Evils (3:48)
14. Vodevil (4:40)
15. Obsequey (The Death Of Art) (1:35)

EAC LOG

Exact Audio Copy V0.99 prebeta 4 from 23. January 2008
EAC extraction logfile from 23. May 2008, 13:25
Marilyn Manson / The Golden Age Of Grotesque
Used drive : TOSHIBA ODD-DVD SD-R6372 Adapter: 1 ID: 0
Read mode : Secure
Utilize accurate stream : Yes
Defeat audio cache : Yes
Make use of C2 pointers : No
Read offset correction : 116
Overread into Lead-In and Lead-Out : No
Fill up missing offset samples with silence : Yes
Delete leading and trailing silent blocks : No
Null samples used in CRC calculations : Yes
Used interface : Native Win32 interface for Win NT & 2000
Gap handling : Appended to previous track
Used output format : User Defined Encoder
Selected bitrate : 768 kBit/s
Quality : High
Add ID3 tag : No
Command line compressor : C:\Program Files\FLAC\flac.exe
Additional command line options : -V -8 -T "artist=%a" -T "title=%t" -T "album=%g" -T "date=%y" -T "tracknumber=%n" %s
TOC of the extracted CD
Track | Start | Length | Start sector | End sector
---------------------------------------------------------
1 | 0:00.00 | 1:14.03 | 0 | 5552
2 | 1:14.03 | 4:19.50 | 5553 | 25027
3 | 5:33.53 | 3:25.54 | 25028 | 40456
4 | 8:59.32 | 4:10.73 | 40457 | 59279
5 | 13:10.30 | 3:34.60 | 59280 | 75389
6 | 16:45.15 | 4:05.35 | 75390 | 93799
7 | 20:50.50 | 3:42.02 | 93800 | 110451
8 | 24:32.52 | 4:02.63 | 110452 | 128664
9 | 28:35.40 | 4:06.55 | 128665 | 147169
10 | 32:42.20 | 4:34.48 | 147170 | 167767
11 | 37:16.68 | 6:01.00 | 167768 | 194842
12 | 43:17.68 | 4:19.02 | 194843 | 214269
13 | 47:36.70 | 3:48.13 | 214270 | 231382
14 | 51:25.08 | 4:39.65 | 231383 | 252372
15 | 56:04.73 | 1:35.15 | 252373 | 259512
Track 1
Filename C:\Hi there RIAA, What's up IFPI\Marilyn Manson - The Golden Age Of Grotesque\01 - Thaeter.wav
Pre-gap length 0:00:02.00
Peak level 49.5 %
Track quality 99.8 %
Test CRC D8E40B2A
Copy CRC D8E40B2A
Accurately ripped (confidence 86) [758D18F4]
Copy OK
Track 2
Filename C:\Hi there RIAA, What's up IFPI\Marilyn Manson - The Golden Age Of Grotesque\02 - This Is The New Shit.wav
Peak level 97.2 %
Track quality 99.9 %
Test CRC B4C59500
Copy CRC B4C59500
Accurately ripped (confidence 87) [DC6B4890]
Copy OK
Track 3
Filename C:\Hi there RIAA, What's up IFPI\Marilyn Manson - The Golden Age Of Grotesque\03 - Mobscene.wav
Peak level 98.8 %
Track quality 100.0 %
Test CRC 4945D699
Copy CRC 4945D699
Accurately ripped (confidence 88) [13D17BB4]
Copy OK
Track 4
Filename C:\Hi there RIAA, What's up IFPI\Marilyn Manson - The Golden Age Of Grotesque\04 - Doll-Dagga Buzz-Buzz Ziggety-Zag.wav
Peak level 97.2 %
Track quality 100.0 %
Test CRC 9E275F04
Copy CRC 9E275F04
Accurately ripped (confidence 88) [E6A6EA49]
Copy OK
Track 5
Filename C:\Hi there RIAA, What's up IFPI\Marilyn Manson - The Golden Age Of Grotesque\05 - Use Your Fist And Not Your Mouth.wav
Peak level 97.2 %
Track quality 100.0 %
Test CRC B457E8DD
Copy CRC B457E8DD
Accurately ripped (confidence 87) [1A94B059]
Copy OK
Track 6
Filename C:\Hi there RIAA, What's up IFPI\Marilyn Manson - The Golden Age Of Grotesque\06 - The Golden Age Of Grotesque.wav
Peak level 97.2 %
Track quality 100.0 %
Test CRC 72F7BB88
Copy CRC 72F7BB88
Accurately ripped (confidence 88) [648B1AB5]
Copy OK
Track 7
Filename C:\Hi there RIAA, What's up IFPI\Marilyn Manson - The Golden Age Of Grotesque\07 - (S)aint.wav
Peak level 98.8 %
Track quality 100.0 %
Test CRC 91C1CA12
Copy CRC 91C1CA12
Accurately ripped (confidence 87) [889D2A5D]
Copy OK
Track 8
Filename C:\Hi there RIAA, What's up IFPI\Marilyn Manson - The Golden Age Of Grotesque\08 - Ka-Boom Ka-Boom.wav
Peak level 97.2 %
Track quality 100.0 %
Test CRC 4D34533A
Copy CRC 4D34533A
Accurately ripped (confidence 84) [05283B27]
Copy OK
Track 9
Filename C:\Hi there RIAA, What's up IFPI\Marilyn Manson - The Golden Age Of Grotesque\09 - Slutgarden.wav
Peak level 97.2 %
Track quality 99.9 %
Test CRC AD54CFFC
Copy CRC AD54CFFC
Accurately ripped (confidence 86) [EE261946]
Copy OK
Track 10
Filename C:\Hi there RIAA, What's up IFPI\Marilyn Manson - The Golden Age Of Grotesque\10 - Spade.wav
Peak level 97.2 %
Track quality 100.0 %
Test CRC 19391319
Copy CRC 19391319
Accurately ripped (confidence 87) [D6EA091F]
Copy OK
Track 11
Filename C:\Hi there RIAA, What's up IFPI\Marilyn Manson - The Golden Age Of Grotesque\11 - Para-Noir.wav
Peak level 97.6 %
Track quality 100.0 %
Test CRC 9EC2DADF
Copy CRC 9EC2DADF
Accurately ripped (confidence 84) [40288BD6]
Copy OK
Track 12
Filename C:\Hi there RIAA, What's up IFPI\Marilyn Manson - The Golden Age Of Grotesque\12 - The Bright Young Things.wav
Peak level 97.2 %
Track quality 100.0 %
Test CRC 376B9C66
Copy CRC 376B9C66
Accurately ripped (confidence 84) [30B96D39]
Copy OK
Track 13
Filename C:\Hi there RIAA, What's up IFPI\Marilyn Manson - The Golden Age Of Grotesque\13 - Better Of Two Evils.wav
Peak level 97.2 %
Track quality 100.0 %
Test CRC 0BC82E58
Copy CRC 0BC82E58
Accurately ripped (confidence 82) [353A07A7]
Copy OK
Track 14
Filename C:\Hi there RIAA, What's up IFPI\Marilyn Manson - The Golden Age Of Grotesque\14 - Vodevil.wav
Peak level 97.2 %
Track quality 100.0 %
Test CRC 9624519C
Copy CRC 9624519C
Accurately ripped (confidence 86) [A63C75C0]
Copy OK
Track 15
Filename C:\Hi there RIAA, What's up IFPI\Marilyn Manson - The Golden Age Of Grotesque\15 - Obsequey (The Death Of Art).wav
Peak level 100.0 %
Track quality 100.0 %
Test CRC 0BEAAC5C
Copy CRC 0BEAAC5C
Accurately ripped (confidence 86) [970765C4]
Copy OK
All tracks accurately ripped
No errors occurred
End of status report

2004 - Lest We Forget: The Best Of

01. The Love Song (3:05)
02. Personal Jesus (4:07)
03. mOBSCENE (3:27)
04. The Fight Song (2:57)
05. Tainted Love (3:20)
06. The Dope Show (3:41)
07. This is the New Shit (4:20)
08. Disposable Teens (3:05)
09. Sweet Dreams (Are Made of This) (4:51)
10. Lunchbox (4:35)
11. Tourniquet (4:45)
12. Rock is Dead (3:10)
13. Get Your Gunn (3:19)
14. The Nobodies (3:36)
15. Long Hard Road Out of Hell (4:21)
16. The Beautiful People (3:43)
17. The Reflecting God (5:36)

EAC LOG

Syrup 0.9.9.47, Track.cfg v.0993
Exact Audio Copy V0.99 prebeta 4 from 23. January 2008
EAC extraction logfile from 8. June 2008, 22:58
Marilyn Manson / Lest We Forget: The Best Of
Used drive : LITE-ON DVDRW LH-20A1S Adapter: 0 ID: 0
Read mode : Secure
Utilize accurate stream : Yes
Defeat audio cache : Yes
Make use of C2 pointers : No
Read offset correction : 6
Overread into Lead-In and Lead-Out : No
Fill up missing offset samples with silence : Yes
Delete leading and trailing silent blocks : No
Null samples used in CRC calculations : Yes
Used interface : Native Win32 interface for Win NT & 2000
Gap handling : Appended to previous track
Used output format : User Defined Encoder
Selected bitrate : 128 kBit/s
Quality : High
Add ID3 tag : No
Command line compressor : C:\Program Files\Exact Audio Copy\Syrup\Syrup.exe
Additional command line options : REACT %o %s %d "%a" "%g" "%t" "%n" "%x" "%y" "%m" "%e" "%f" "%b" %r
TOC of the extracted CD
Track | Start | Length | Start sector | End sector
---------------------------------------------------------
1 | 0:00.00 | 3:05.32 | 0 | 13906
2 | 3:05.32 | 4:06.50 | 13907 | 32406
3 | 7:12.07 | 3:26.40 | 32407 | 47896
4 | 10:38.47 | 2:57.33 | 47897 | 61204
5 | 13:36.05 | 3:20.05 | 61205 | 76209
6 | 16:56.10 | 3:40.70 | 76210 | 92779
7 | 20:37.05 | 4:20.07 | 92780 | 112286
8 | 24:57.12 | 3:04.60 | 112287 | 126146
9 | 28:01.72 | 4:51.33 | 126147 | 148004
10 | 32:53.30 | 4:35.02 | 148005 | 168631
11 | 37:28.32 | 4:44.43 | 168632 | 189974
12 | 42:13.00 | 3:09.42 | 189975 | 204191
13 | 45:22.42 | 3:18.50 | 204192 | 219091
14 | 48:41.17 | 3:35.68 | 219092 | 235284
15 | 52:17.10 | 4:21.12 | 235285 | 254871
16 | 56:38.22 | 3:42.58 | 254872 | 271579
17 | 60:21.05 | 5:36.37 | 271580 | 296816
Track 1
Filename E:\Temp\Syrup\Marilyn Manson - Lest We Forget- The Best Of - 01 - The Love Song.wav
Pre-gap length 0:00:02.00
Peak level 98.8 %
Track quality 100.0 %
Test CRC 23672096
Copy CRC 23672096
Accurately ripped (confidence 66) [B69DD1AD]
Copy OK
Track 2
Filename E:\Temp\Syrup\Marilyn Manson - Lest We Forget- The Best Of - 02 - Personal Jesus.wav
Peak level 94.4 %
Track quality 100.0 %
Test CRC 9BC7E62B
Copy CRC 9BC7E62B
Accurately ripped (confidence 67) [C930771D]
Copy OK
Track 3
Filename E:\Temp\Syrup\Marilyn Manson - Lest We Forget- The Best Of - 03 - mOBSCENE.wav
Peak level 98.8 %
Track quality 99.9 %
Test CRC A9F8D7A9
Copy CRC A9F8D7A9
Accurately ripped (confidence 68) [7802D344]
Copy OK
Track 4
Filename E:\Temp\Syrup\Marilyn Manson - Lest We Forget- The Best Of - 04 - The Fight Song.wav
Peak level 98.8 %
Track quality 100.0 %
Test CRC 1975762C
Copy CRC 1975762C
Accurately ripped (confidence 67) [EEFFC2F7]
Copy OK
Track 5
Filename E:\Temp\Syrup\Marilyn Manson - Lest We Forget- The Best Of - 05 - Tainted Love.wav
Peak level 98.8 %
Track quality 100.0 %
Test CRC B00E1BB4
Copy CRC B00E1BB4
Accurately ripped (confidence 67) [198D5637]
Copy OK
Track 6
Filename E:\Temp\Syrup\Marilyn Manson - Lest We Forget- The Best Of - 06 - The Dope Show.wav
Peak level 98.8 %
Track quality 100.0 %
Test CRC 63F12EA1
Copy CRC 63F12EA1
Accurately ripped (confidence 68) [966597D4]
Copy OK
Track 7
Filename E:\Temp\Syrup\Marilyn Manson - Lest We Forget- The Best Of - 07 - This is the New Shit.wav
Peak level 97.2 %
Track quality 100.0 %
Test CRC 30E3F837
Copy CRC 30E3F837
Accurately ripped (confidence 67) [F168507D]
Copy OK
Track 8
Filename E:\Temp\Syrup\Marilyn Manson - Lest We Forget- The Best Of - 08 - Disposable Teens.wav
Peak level 98.8 %
Track quality 100.0 %
Test CRC 772C5328
Copy CRC 772C5328
Accurately ripped (confidence 67) [9AC86F1F]
Copy OK
Track 9
Filename E:\Temp\Syrup\Marilyn Manson - Lest We Forget- The Best Of - 09 - Sweet Dreams (Are Made of This).wav
Peak level 98.8 %
Track quality 100.0 %
Test CRC 6E4B0460
Copy CRC 6E4B0460
Accurately ripped (confidence 69) [D4769B9D]
Copy OK
Track 10
Filename E:\Temp\Syrup\Marilyn Manson - Lest We Forget- The Best Of - 10 - Lunchbox.wav
Peak level 98.8 %
Track quality 100.0 %
Test CRC BE2DA6E5
Copy CRC BE2DA6E5
Accurately ripped (confidence 68) [271C05A4]
Copy OK
Track 11
Filename E:\Temp\Syrup\Marilyn Manson - Lest We Forget- The Best Of - 11 - Tourniquet.wav
Peak level 98.8 %
Track quality 99.9 %
Test CRC 5291DDBF
Copy CRC 5291DDBF
Accurately ripped (confidence 68) [970FE6E0]
Copy OK
Track 12
Filename E:\Temp\Syrup\Marilyn Manson - Lest We Forget- The Best Of - 12 - Rock is Dead.wav
Peak level 88.1 %
Track quality 100.0 %
Test CRC CE5232BB
Copy CRC CE5232BB
Accurately ripped (confidence 67) [FB67D343]
Copy OK
Track 13
Filename E:\Temp\Syrup\Marilyn Manson - Lest We Forget- The Best Of - 13 - Get Your Gunn.wav
Peak level 98.8 %
Track quality 100.0 %
Test CRC 717D8F61
Copy CRC 717D8F61
Accurately ripped (confidence 67) [CA25B264]
Copy OK
Track 14
Filename E:\Temp\Syrup\Marilyn Manson - Lest We Forget- The Best Of - 14 - The Nobodies.wav
Peak level 98.8 %
Track quality 100.0 %
Test CRC E133D8B1
Copy CRC E133D8B1
Accurately ripped (confidence 68) [0CD8F147]
Copy OK
Track 15
Filename E:\Temp\Syrup\Marilyn Manson - Lest We Forget- The Best Of - 15 - Long Hard Road Out of Hell.wav
Peak level 100.0 %
Track quality 100.0 %
Test CRC 5D54424C
Copy CRC 5D54424C
Accurately ripped (confidence 68) [CC0ECF2A]
Copy OK
Track 16
Filename E:\Temp\Syrup\Marilyn Manson - Lest We Forget- The Best Of - 16 - The Beautiful People.wav
Peak level 98.8 %
Track quality 100.0 %
Test CRC 07E4FBA6
Copy CRC 07E4FBA6
Accurately ripped (confidence 69) [AD16D099]
Copy OK
Track 17
Filename E:\Temp\Syrup\Marilyn Manson - Lest We Forget- The Best Of - 17 - The Reflecting God.wav
Peak level 98.8 %
Track quality 100.0 %
Test CRC 55636FC5
Copy CRC 55636FC5
Accurately ripped (confidence 63) [D8DA986F]
Copy OK
All tracks accurately ripped
No errors occurred
End of status report

2007 - Eat Me, Drink Me

01. If I Was Your Vampire (5:56)
02. Putting Holes in Happiness (4:31)
03. The Red Carpet Grave (4:05)
04. They Said That Hell's Not Hot (4:17)
05. Just a Car Crash Away (4:55)
06. Heart-Shaped Glasses (When the Heart Guides the Hand) (5:06)
07. Evidence (5:20)
08. Are You the Rabbit? (4:14)
09. Mutilation is the Most Sincere Form of Flattery (3:53)
10. You and Me and the Devil Makes 3 (4:24)
11. Eat Me, Drink Me (5:41)

EAC LOG

Syrup 0.9.9.47, Track.cfg v.0993
Exact Audio Copy V0.99 prebeta 4 from 23. January 2008
EAC extraction logfile from 12. May 2008, 13:24
Marilyn Manson / Eat Me, Drink Me
Used drive : LITE-ON DVDRW LH-20A1S Adapter: 0 ID: 0
Read mode : Secure
Utilize accurate stream : Yes
Defeat audio cache : Yes
Make use of C2 pointers : No
Read offset correction : 6
Overread into Lead-In and Lead-Out : No
Fill up missing offset samples with silence : Yes
Delete leading and trailing silent blocks : No
Null samples used in CRC calculations : Yes
Used interface : Native Win32 interface for Win NT & 2000
Gap handling : Appended to previous track
Used output format : User Defined Encoder
Selected bitrate : 128 kBit/s
Quality : High
Add ID3 tag : No
Command line compressor : C:\Program Files\Exact Audio Copy\Syrup\Syrup.exe
Additional command line options : REACT %o %s %d "%a" "%g" "%t" "%n" "%x" "%y" "%m" "%e" "%f" "%b" %r
TOC of the extracted CD
Track | Start | Length | Start sector | End sector
---------------------------------------------------------
1 | 0:00.00 | 5:56.22 | 0 | 26721
2 | 5:56.22 | 4:31.20 | 26722 | 47066
3 | 10:27.42 | 4:05.00 | 47067 | 65441
4 | 14:32.42 | 4:16.73 | 65442 | 84714
5 | 18:49.40 | 4:54.72 | 84715 | 106836
6 | 23:44.37 | 5:05.60 | 106837 | 129771
7 | 28:50.22 | 5:19.65 | 129772 | 153761
8 | 34:10.12 | 4:14.10 | 153762 | 172821
9 | 38:24.22 | 3:52.50 | 172822 | 190271
10 | 42:16.72 | 4:24.20 | 190272 | 210091
11 | 46:41.17 | 5:40.53 | 210092 | 235644
Track 1
Filename E:\Temp\Syrup\Marilyn Manson - Eat Me, Drink Me - 01 - If I Was Your Vampire.wav
Pre-gap length 0:00:02.00
Peak level 98.7 %
Track quality 99.9 %
Test CRC BBF6B72F
Copy CRC BBF6B72F
Accurately ripped (confidence 71) [BE07FA2F]
Copy OK
Track 2
Filename E:\Temp\Syrup\Marilyn Manson - Eat Me, Drink Me - 02 - Putting Holes in Happiness.wav
Peak level 98.7 %
Track quality 100.0 %
Test CRC 93ADC72D
Copy CRC 93ADC72D
Accurately ripped (confidence 71) [2F204836]
Copy OK
Track 3
Filename E:\Temp\Syrup\Marilyn Manson - Eat Me, Drink Me - 03 - The Red Carpet Grave.wav
Pre-gap length 0:00:00.01
Peak level 98.7 %
Track quality 100.0 %
Test CRC F4A5D5AF
Copy CRC F4A5D5AF
Accurately ripped (confidence 70) [6B4F1751]
Copy OK
Track 4
Filename E:\Temp\Syrup\Marilyn Manson - Eat Me, Drink Me - 04 - They Said That Hell's Not Hot.wav
Pre-gap length 0:00:00.01
Peak level 98.7 %
Track quality 100.0 %
Test CRC D2A4BB01
Copy CRC D2A4BB01
Accurately ripped (confidence 69) [621FCC8A]
Copy OK
Track 5
Filename E:\Temp\Syrup\Marilyn Manson - Eat Me, Drink Me - 05 - Just a Car Crash Away.wav
Pre-gap length 0:00:01.61
Peak level 98.7 %
Track quality 100.0 %
Test CRC 13E0FA61
Copy CRC 13E0FA61
Accurately ripped (confidence 69) [0F41B564]
Copy OK
Track 6
Filename E:\Temp\Syrup\Marilyn Manson - Eat Me, Drink Me - 06 - Heart-Shaped Glasses (When the Heart Guides the Hand).wav
Pre-gap length 0:00:02.69
Peak level 98.7 %
Track quality 100.0 %
Test CRC 6CD92DB2
Copy CRC 6CD92DB2
Accurately ripped (confidence 69) [900D105A]
Copy OK
Track 7
Filename E:\Temp\Syrup\Marilyn Manson - Eat Me, Drink Me - 07 - Evidence.wav
Peak level 98.7 %
Track quality 100.0 %
Test CRC FAFD2DCF
Copy CRC FAFD2DCF
Accurately ripped (confidence 69) [3A55B081]
Copy OK
Track 8
Filename E:\Temp\Syrup\Marilyn Manson - Eat Me, Drink Me - 08 - Are You the Rabbit .wav
Peak level 98.7 %
Track quality 100.0 %
Test CRC 4FE90FB3
Copy CRC 4FE90FB3
Accurately ripped (confidence 69) [FD7C4629]
Copy OK
Track 9
Filename E:\Temp\Syrup\Marilyn Manson - Eat Me, Drink Me - 09 - Mutilation is the Most Sincere Form of Flattery.wav
Peak level 98.7 %
Track quality 100.0 %
Test CRC 6D3835C9
Copy CRC 6D3835C9
Accurately ripped (confidence 69) [2D33017A]
Copy OK
Track 10
Filename E:\Temp\Syrup\Marilyn Manson - Eat Me, Drink Me - 10 - You and Me and the Devil Makes 3.wav
Pre-gap length 0:00:01.42
Peak level 98.7 %
Track quality 100.0 %
Test CRC 92F9BCF8
Copy CRC 92F9BCF8
Accurately ripped (confidence 69) [38D979E3]
Copy OK
Track 11
Filename E:\Temp\Syrup\Marilyn Manson - Eat Me, Drink Me - 11 - Eat Me, Drink Me.wav
Peak level 98.7 %
Track quality 99.9 %
Test CRC A81D703D
Copy CRC A81D703D
Accurately ripped (confidence 68) [BD779C69]
Copy OK
All tracks accurately ripped
No errors occurred
End of status report

2009 - The High End Of Low (Deluxe Edition)

01. Devour (3:46)
02. Pretty As A ($) (2:45)
03. Leave A Scar (3:55)
04. Four Rusted Horses (5:00)
05. Arma-Goddamn-Motherfuckin-Geddon (3:39)
06. Blank And White (4:27)
07. Running To The Edge Of The World (6:26)
08. I Want To Kill You Like They Do I (9:02)
09. WOW (4:55)
10. Wight Spider (5:33)
11. Unkillable Monster (3:44)
12. We're From America (5:04)
13. I Have To Look Up Just To See Hell (4:12)
14. Into The Fire (5:15)
15. 15 (4:21)

EAC LOG

Exact Audio Copy V0.99 prebeta 4 from 23. January 2008
EAC extraction logfile from 25. May 2009, 19:10
Marilyn Manson / The High End Of Low (Deluxe Edition)
Used drive : PIONEER DVD RW DVR-107D Adapter: 1 ID: 0
Read mode : Secure
Utilize accurate stream : Yes
Defeat audio cache : Yes
Make use of C2 pointers : No
Read offset correction : 48
Overread into Lead-In and Lead-Out : No
Fill up missing offset samples with silence : Yes
Delete leading and trailing silent blocks : No
Null samples used in CRC calculations : Yes
Used interface : Native Win32 interface for Win NT & 2000
Gap handling : Appended to previous track
Used output format : User Defined Encoder
Selected bitrate : 320 kBit/s
Quality : High
Add ID3 tag : No
Command line compressor : C:\Program Files\Exact Audio Copy\flac.exe
Additional command line options : -V -8 -T "artist=%a" -T "title=%t" -T "album=%g" -T "date=%y" -T "tracknumber=%n" -T "genre=%m" %s
TOC of the extracted CD
Track | Start | Length | Start sector | End sector
---------------------------------------------------------
1 | 0:00.00 | 3:45.38 | 0 | 16912
2 | 3:45.38 | 2:45.10 | 16913 | 29297
3 | 6:30.48 | 3:54.68 | 29298 | 46915
4 | 10:25.41 | 5:00.37 | 46916 | 69452
5 | 15:26.03 | 3:39.27 | 69453 | 85904
6 | 19:05.30 | 4:27.32 | 85905 | 105961
7 | 23:32.62 | 6:25.56 | 105962 | 134892
8 | 29:58.43 | 9:01.48 | 134893 | 175515
9 | 39:00.16 | 4:55.34 | 175516 | 197674
10 | 43:55.50 | 5:32.50 | 197675 | 222624
11 | 49:28.25 | 3:43.62 | 222625 | 239411
12 | 53:12.12 | 5:04.24 | 239412 | 262235
13 | 58:16.36 | 4:11.55 | 262236 | 281115
14 | 62:28.16 | 5:14.38 | 281116 | 304703
15 | 67:42.54 | 4:20.44 | 304704 | 324247
Track 1
Filename F:\EAC Rip\01 - Marilyn Manson - Devour.wav
Pre-gap length 0:00:02.00
Peak level 98.8 %
Track quality 100.0 %
Test CRC C7EAD4D0
Copy CRC C7EAD4D0
Track not present in AccurateRip database
Copy OK
Track 2
Filename F:\EAC Rip\02 - Marilyn Manson - Pretty As A ($).wav
Peak level 98.8 %
Track quality 100.0 %
Test CRC 8596E27A
Copy CRC 8596E27A
Track not present in AccurateRip database
Copy OK
Track 3
Filename F:\EAC Rip\03 - Marilyn Manson - Leave A Scar.wav
Peak level 98.8 %
Track quality 100.0 %
Test CRC BCABCA8D
Copy CRC BCABCA8D
Track not present in AccurateRip database
Copy OK
Track 4
Filename F:\EAC Rip\04 - Marilyn Manson - Four Rusted Horses.wav
Peak level 98.7 %
Track quality 99.9 %
Test CRC AFDB979E
Copy CRC AFDB979E
Track not present in AccurateRip database
Copy OK
Track 5
Filename F:\EAC Rip\05 - Marilyn Manson - Arma-Goddamn-Motherfuckin-Geddon.wav
Peak level 98.8 %
Track quality 100.0 %
Test CRC 2C1D3803
Copy CRC 2C1D3803
Track not present in AccurateRip database
Copy OK
Track 6
Filename F:\EAC Rip\06 - Marilyn Manson - Blank And White.wav
Peak level 100.0 %
Track quality 100.0 %
Test CRC 42022887
Copy CRC 42022887
Track not present in AccurateRip database
Copy OK
Track 7
Filename F:\EAC Rip\07 - Marilyn Manson - Running To The Edge Of The World.wav
Peak level 98.8 %
Track quality 100.0 %
Test CRC FA6C8F81
Copy CRC FA6C8F81
Track not present in AccurateRip database
Copy OK
Track 8
Filename F:\EAC Rip\08 - Marilyn Manson - I Want To Kill You Like They Do In The Movies.wav
Peak level 98.7 %
Track quality 100.0 %
Test CRC B26C7431
Copy CRC B26C7431
Track not present in AccurateRip database
Copy OK
Track 9
Filename F:\EAC Rip\09 - Marilyn Manson - WOW.wav
Peak level 98.8 %
Track quality 100.0 %
Test CRC C89F2F7B
Copy CRC C89F2F7B
Track not present in AccurateRip database
Copy OK
Track 10
Filename F:\EAC Rip\10 - Marilyn Manson - Wight Spider.wav
Peak level 98.8 %
Track quality 100.0 %
Test CRC C04D3AF9
Copy CRC C04D3AF9
Track not present in AccurateRip database
Copy OK
Track 11
Filename F:\EAC Rip\11 - Marilyn Manson - Unkillable Monster.wav
Peak level 98.8 %
Track quality 100.0 %
Test CRC 7FA22309
Copy CRC 7FA22309
Track not present in AccurateRip database
Copy OK
Track 12
Filename F:\EAC Rip\12 - Marilyn Manson - We're From America.wav
Peak level 98.8 %
Track quality 100.0 %
Test CRC E76751BF
Copy CRC E76751BF
Track not present in AccurateRip database
Copy OK
Track 13
Filename F:\EAC Rip\13 - Marilyn Manson - I Have To Look Up Just To See Hell.wav
Peak level 98.8 %
Track quality 100.0 %
Test CRC 969C5D8C
Copy CRC 969C5D8C
Track not present in AccurateRip database
Copy OK
Track 14
Filename F:\EAC Rip\14 - Marilyn Manson - Into The Fire.wav
Peak level 98.8 %
Track quality 100.0 %
Test CRC 1FD55F25
Copy CRC 1FD55F25
Track not present in AccurateRip database
Copy OK
Track 15
Filename F:\EAC Rip\15 - Marilyn Manson - 15.wav
Peak level 98.8 %
Track quality 100.0 %
Test CRC F48F63B9
Copy CRC F48F63B9
Track not present in AccurateRip database
Copy OK
None of the tracks are present in the AccurateRip database
No errors occurred
End of status report
Bonus Disc:
01. Arma-goddamn-motherfuckin-geddon (Teddy Bears Remix) (3:31)
02. Leave A Scar (Alternate Version) (4:03)
03. Running To The Edge Of The World (Alternate Version) (6:08)
04. Wight Spider (Alternate Version) (5:28)
05. Four Rusted Horses (Opening Titles Version) (5:03)
06. I Have To Look Up Just To See Hell (Alternate Version) (4:08)
07. Into The Fire (Alternate Version) (4:34)

EAC LOG

Exact Audio Copy V0.99 prebeta 4 from 23. January 2008
EAC extraction logfile from 25. May 2009, 19:37
Marilyn Manson / The High End Of Low (Deluxe Edition - Bonus Disc)
Used drive : PIONEER DVD RW DVR-107D Adapter: 1 ID: 0
Read mode : Secure
Utilize accurate stream : Yes
Defeat audio cache : Yes
Make use of C2 pointers : No
Read offset correction : 48
Overread into Lead-In and Lead-Out : No
Fill up missing offset samples with silence : Yes
Delete leading and trailing silent blocks : No
Null samples used in CRC calculations : Yes
Used interface : Native Win32 interface for Win NT & 2000
Gap handling : Appended to previous track
Used output format : User Defined Encoder
Selected bitrate : 320 kBit/s
Quality : High
Add ID3 tag : No
Command line compressor : C:\Program Files\Exact Audio Copy\flac.exe
Additional command line options : -V -8 -T "artist=%a" -T "title=%t" -T "album=%g" -T "date=%y" -T "tracknumber=%n" -T "genre=%m" %s
TOC of the extracted CD
Track | Start | Length | Start sector | End sector
---------------------------------------------------------
1 | 0:00.00 | 3:30.66 | 0 | 15815
2 | 3:30.66 | 4:02.59 | 15816 | 34024
3 | 7:33.50 | 6:07.71 | 34025 | 61620
4 | 13:41.46 | 5:28.12 | 61621 | 86232
5 | 19:09.58 | 5:02.61 | 86233 | 108943
6 | 24:12.44 | 4:07.39 | 108944 | 127507
Track 1
Filename F:\EAC Rip\01 - Marilyn Manson - Arma-goddamn-motherfuckin-geddon (Teddy Bears Remix).wav
Pre-gap length 0:00:02.00
Peak level 99.9 %
Track quality 100.0 %
Test CRC 4FA098E0
Copy CRC 4FA098E0
Track not present in AccurateRip database
Copy OK
Track 2
Filename F:\EAC Rip\02 - Marilyn Manson - Leave A Scar (Alternate Version).wav
Pre-gap length 0:00:00.97
Peak level 98.8 %
Track quality 100.0 %
Test CRC 4B8F3DFE
Copy CRC 4B8F3DFE
Track not present in AccurateRip database
Copy OK
Track 3
Filename F:\EAC Rip\03 - Marilyn Manson - Running To The Edge Of The World (Alternate Version).wav
Pre-gap length 0:00:01.00
Peak level 98.8 %
Track quality 99.9 %
Test CRC 10AE54D6
Copy CRC 10AE54D6
Track not present in AccurateRip database
Copy OK
Track 4
Filename F:\EAC Rip\04 - Marilyn Manson - Wight Spider (Alternate Version).wav
Pre-gap length 0:00:01.00
Peak level 98.8 %
Track quality 100.0 %
Test CRC DCAAFDE8
Copy CRC DCAAFDE8
Track not present in AccurateRip database
Copy OK
Track 5
Filename F:\EAC Rip\05 - Marilyn Manson - Four Rusted Horses (Opening Titles Version).wav
Pre-gap length 0:00:01.00
Peak level 98.8 %
Track quality 99.9 %
Test CRC AE617118
Copy CRC AE617118
Track not present in AccurateRip database
Copy OK
Track 6
Filename F:\EAC Rip\06 - Marilyn Manson - I Have To Look Up Just To See Hell (Alternate Version).wav
Pre-gap length 0:00:01.00
Peak level 98.8 %
Track quality 100.0 %
Test CRC 349739AF
Copy CRC 349739AF
Track not present in AccurateRip database
Copy OK
None of the tracks are present in the AccurateRip database
No errors occurred
End of status report
-Released by:
Скачать

Скачать бесплатно и на максимальной скорости!

Как скачивать? · Что такое торрент? · Рейтинг и ограничения

[Профиль]  [ЛС] 
Показать сообщения:    
Ответить на тему

Текущее время: Сегодня 15:42

Часовой пояс: GMT + 3



Вы не можете начинать темы
Вы не можете отвечать на сообщения
Вы не можете редактировать свои сообщения
Вы не можете удалять свои сообщения
Вы не можете голосовать в опросах
Вы не можете прикреплять файлы к сообщениям
Вы не можете скачивать файлы