(Symphonic Metal / Cello Metal) Apocalyptica - 7th Symphony (Deluxe Edition) - 2010, FLAC (image + .cue), lossless

Ответить на тему
 
Автор Сообщение

Three7 ®

Стаж: 9 лет 7 месяцев

Сообщений: 464

Откуда: Тула

Пост 21-Авг-2010 18:37

[Цитировать] 

Apocalyptica - 7th Symphony (Deluxe Edition)--
Страна: USA
Жанр: Symphonic Metal / Cello Metal
Год выпуска: 2010
Формат: FLAC (image + .cue)
Битрейт аудио: lossless
Продолжительность: 00:57:38

Трэклист:
    01. At the Gates of Manala (7:03)
    02. End of Me (feat. Gavin Rossdale) (3:28)
    03. Not Strong Enough (feat. Brent Smith) (3:36)
    04. 2010 (feat. Dave Lombardo) (4:30)
    05. Through Paris in a Sportscar (3:52)
    06. Beautiful (2:18)
    07. Broken Pieces (feat. Lacey) (3:54)
    08. On the Rooftop with Quasimodo (4:59)
    09. Bring them to Light (feat. Joseph Duplantier) (4:44)
    10. Sacra (4:22)
    11. Rage of Poseidon (8:41)
    12. The Shadow of Venus (6:05)[/list:u]Доп. информация:

    log EAC

    Exact Audio Copy V0.99 prebeta 4 from 23. January 2008
    Отчёт EAC об извлечении, выполненном 20. августа 2010, 22:50
    Apocalyptica / 7th Symphony
    Дисковод: PLEXTOR DVDR PX-880SA Adapter: 1 ID: 1
    Режим чтения : Достоверность
    Использование точного потока : Да
    Отключение кэша аудио : Да
    Использование указателей C2 : Нет
    Коррекция смещения при чтении : 6
    Способность читать области Lead-in и Lead-out : Нет
    Заполнение пропущенных сэмплов тишиной : Да
    Удаление блоков с тишиной в начале и конце : Нет
    При вычислениях CRC использовались нулевые сэмплы : Да
    Интерфейс : Установленный внешний ASPI-интерфейс
    Выходной формат : Пользовательский кодировщик
    Выбранный битрейт : 1024 kBit/s
    Качество : Высокий
    Добавление ID3-тэга : Нет
    Утилита сжатия : C:\Program Files\Exact Audio Copy\FLAC\FLAC.EXE
    Дополнительные параметры : -5 -V -T "ARTIST=%a" -T "TITLE=%t" -T "ALBUM=%g" -T "DATE=%y" -T "TRACKNUMBER=%n" -T "GENRE=%m" -T "COMMENT=%e" %s -o %d
    TOC извлечённого CD
    Трек | Старт | Длительность | Начальный сектор | Конечный сектор
    ---------------------------------------------------------------------
    1 | 0:00.00 | 7:03.35 | 0 | 31759
    2 | 7:03.35 | 3:28.44 | 31760 | 47403
    3 | 10:32.04 | 3:36.39 | 47404 | 63642
    4 | 14:08.43 | 4:30.60 | 63643 | 83952
    5 | 18:39.28 | 3:52.23 | 83953 | 101375
    6 | 22:31.51 | 2:18.59 | 101376 | 111784
    7 | 24:50.35 | 3:54.37 | 111785 | 129371
    8 | 28:44.72 | 4:59.36 | 129372 | 151832
    9 | 33:44.33 | 4:44.47 | 151833 | 173179
    10 | 38:29.05 | 4:22.33 | 173180 | 192862
    11 | 42:51.38 | 8:41.26 | 192863 | 231963
    12 | 51:32.64 | 6:05.74 | 231964 | 259412
    Характеристики диапазона извлечения и сообщения об ошибках
    Выбранный диапазон
    Имя файла I:\BitComet\Apocalyptica(flac)\2010-7th Symphony\Apocalyptica - 7th Symphony.wav
    Пиковый уровень 99.8 %
    Качество диапазона 100.0 %
    CRC теста E7F5FE4B
    CRC копии E7F5FE4B
    Копирование... OK
    Ошибок не произошло
    AccurateRip: сводка
    Трек 1 нет в базе данных
    Трек 2 нет в базе данных
    Трек 3 нет в базе данных
    Трек 4 нет в базе данных
    Трек 5 нет в базе данных
    Трек 6 нет в базе данных
    Трек 7 нет в базе данных
    Трек 8 нет в базе данных
    Трек 9 нет в базе данных
    Трек 10 нет в базе данных
    Трек 11 нет в базе данных
    Трек 12 нет в базе данных
    Ни одного трека нет в базе AccurateRip
    Конец отчёта
    -Released by:
    Скачать

    Скачать бесплатно и на максимальной скорости!

    Как скачивать? · Что такое торрент? · Рейтинг и ограничения



Последний раз редактировалось: Three7 (2010-09-01 21:08), всего редактировалось 2 раз(а)
[Профиль]  [ЛС] 

Strike

Стаж: 9 лет 7 месяцев

Сообщений: 127

Откуда: Grand Line

Пост 21-Авг-2010 19:14 (спустя 37 минут)

[Цитировать] 

Что за шрифт такой если не секрет ? =)-Спасибо, не знал что можно свои шрифты юзать )


Последний раз редактировалось: Strike (2010-08-22 10:55), всего редактировалось 1 раз
[Профиль]  [ЛС] 

Three7 ®

Стаж: 9 лет 7 месяцев

Сообщений: 464

Откуда: Тула

Пост 21-Авг-2010 19:34 (спустя 19 минут)

[Цитировать] 

Strike конечно не секрет: сверху Colonna MT, трэклист Goudy Old Style.
[Профиль]  [ЛС] 

ksv

Стаж: 9 лет 7 месяцев

Сообщений: 5

Пост 21-Авг-2010 23:30 (спустя 3 часа)

[Цитировать] 

Three7
Спасибо за лослес
[Профиль]  [ЛС] 

Dredd21

Стаж: 9 лет 2 месяца

Сообщений: 247

Откуда: Богородицк, м-рн Западный, м-рн Лесной

Пост 26-Сен-2010 09:13 (спустя 1 месяц 4 дня)

[Цитировать] 

а как разбить на треки для нарезки?
[Профиль]  [ЛС] 

Three7 ®

Стаж: 9 лет 7 месяцев

Сообщений: 464

Откуда: Тула

Пост 26-Сен-2010 09:47 (спустя 34 минуты)

[Цитировать] 

Dredd21 для нарезки на диск?
[Профиль]  [ЛС] 

Dredd21

Стаж: 9 лет 2 месяца

Сообщений: 247

Откуда: Богородицк, м-рн Западный, м-рн Лесной

Пост 26-Сен-2010 09:56 (спустя 9 минут)

[Цитировать] 

Three7
да, разобрался, только не знаю, автомагнитола съест FLAC, или пререкодировать придётся bw
[Профиль]  [ЛС] 

Three7 ®

Стаж: 9 лет 7 месяцев

Сообщений: 464

Откуда: Тула

Пост 26-Сен-2010 10:00 (спустя 4 минуты)

[Цитировать] 

Dredd21 прямо так и нарезайте. Есть же cue-файл.
upd: у вас получиться аудио-диск
[Профиль]  [ЛС] 

Dredd21

Стаж: 9 лет 2 месяца

Сообщений: 247

Откуда: Богородицк, м-рн Западный, м-рн Лесной

Пост 26-Сен-2010 10:02 (спустя 2 минуты)

[Цитировать] 

Three7
ок. Спасибо!
[Профиль]  [ЛС] 

Three7 ®

Стаж: 9 лет 7 месяцев

Сообщений: 464

Откуда: Тула

Пост 26-Сен-2010 10:07 (спустя 4 минуты)

[Цитировать] 

Dredd21 для нарезки используйте программу EAC

Как нарезать с помощью EAC

[Профиль]  [ЛС] 
Показать сообщения:    
Ответить на тему

Текущее время: Сегодня 18:56

Часовой пояс: GMT + 3



Вы не можете начинать темы
Вы не можете отвечать на сообщения
Вы не можете редактировать свои сообщения
Вы не можете удалять свои сообщения
Вы не можете голосовать в опросах
Вы не можете прикреплять файлы к сообщениям
Вы не можете скачивать файлы