(Symphonic Gothic Metal) Within Temptation - The Unforgiving - 2011, FLAC (image+.cue), lossless

Ответить на тему
 
Автор Сообщение

Three7 ®

Стаж: 9 лет 7 месяцев

Сообщений: 464

Откуда: Тула

Пост 26-Мар-2011 17:02

[Цитировать] 

Within Temptation - The Unforgiving- Страна: Netherlands
Жанр: Symphonic Gothic Metal
Год выпуска: 2011
Формат: FLAC (image+.cue)
Битрейт аудио: lossless
Продолжительность: 00:53:47

Трэклист:
01. Why Not Me
02. Shot In The Dark
03. In The Middle Of The Night
04. Faster
05. Fire And Ice
06. Iron
07. Where Is The Edge
08. Sinad
09. Lost
10. Murder
11. A Demon's Fate
12. Stairway To The Skies

MP3

log EAC

[code:1]Exact Audio Copy V0.99 prebeta 4 from 23. January 2008
Отчёт EAC об извлечении, выполненном 25. марта 2011, 15:22
Within Temptation / The Unforgiving
Дисковод: _NEC DVD_RW ND-3500AG Adapter: 3 ID: 0
Режим чтения : Достоверность
Использование точного потока : Да
Отключение кэша аудио : Да
Использование указателей C2 : Нет
Коррекция смещения при чтении : 48
Способность читать области Lead-in и Lead-out : Нет
Заполнение пропущенных сэмплов тишиной : Да
Удаление блоков с тишиной в начале и конце : Нет
При вычислениях CRC использовались нулевые сэмплы : Да
Интерфейс : Установленный внешний ASPI-интерфейс
Выходной формат : Внутренние WAV-операции
Формат сэмплов : 44.100 Гц; 16 бит; стерео
TOC извлечённого CD
Трек | Старт | Длительность | Начальный сектор | Конечный сектор
---------------------------------------------------------------------
1 | 0:00.00 | 0:34.37 | 0 | 2586
2 | 0:34.37 | 5:02.18 | 2587 | 25254
3 | 5:36.55 | 5:11.47 | 25255 | 48626
4 | 10:48.27 | 4:23.73 | 48627 | 68424
5 | 15:12.25 | 3:57.45 | 68425 | 86244
6 | 19:09.70 | 5:41.00 | 86245 | 111819
7 | 24:50.70 | 3:59.19 | 111820 | 129763
8 | 28:50.14 | 4:23.62 | 129764 | 149550
9 | 33:14.01 | 5:14.25 | 149551 | 173125
10 | 38:28.26 | 4:16.35 | 173126 | 192360
11 | 42:44.61 | 5:30.19 | 192361 | 217129
12 | 48:15.05 | 5:32.19 | 217130 | 242048
Характеристики диапазона извлечения и сообщения об ошибках
Выбранный диапазон
Имя файла D:Within Temptation - The Unforgiving.wav
Пиковый уровень 97.7 %
Качество диапазона 99.9 %
CRC теста 7A50A506
CRC копии 7A50A506
Копирование... OK
Ошибок не произошло
AccurateRip: сводка
Трек 1 нет в базе данных
Трек 2 нет в базе данных
Трек 3 нет в базе данных
Трек 4 нет в базе данных
Трек 5 нет в базе данных
Трек 6 нет в базе данных
Трек 7 нет в базе данных
Трек 8 нет в базе данных
Трек 9 нет в базе данных
Трек 10 нет в базе данных
Трек 11 нет в базе данных
Трек 12 нет в базе данных
Ни одного трека нет в базе AccurateRip
Конец отчёта[/code:1]

.cue

[code:1]REM GENRE "Symphonic Gothic Metal"
REM DATE 2011
REM DISCID A30C9B0C
REM COMMENT "ExactAudioCopy v0.99pb4"
PERFORMER "Within Temptation"
TITLE "The Unforgiving"
FILE "Within Temptation - The Unforgiving.flac" WAVE
TRACK 01 AUDIO
TITLE "Why not me"
PERFORMER "Within Temptation"
INDEX 01 00:00:00
TRACK 02 AUDIO
TITLE "Shot in the dark"
PERFORMER "Within Temptation"
INDEX 01 00:34:37
TRACK 03 AUDIO
TITLE "In the middle of the night"
PERFORMER "Within Temptation"
INDEX 01 05:36:55
TRACK 04 AUDIO
TITLE "Faster"
PERFORMER "Within Temptation"
INDEX 01 10:48:27
TRACK 05 AUDIO
TITLE "Fire and ice"
PERFORMER "Within Temptation"
INDEX 01 15:12:25
TRACK 06 AUDIO
TITLE "Iron"
PERFORMER "Within Temptation"
INDEX 01 19:09:70
TRACK 07 AUDIO
TITLE "Where is the edge"
PERFORMER "Within Temptation"
INDEX 01 24:50:70
TRACK 08 AUDIO
TITLE "Sinйad"
PERFORMER "Within Temptation"
INDEX 01 28:50:14
TRACK 09 AUDIO
TITLE "Lost"
PERFORMER "Within Temptation"
INDEX 01 33:14:01
TRACK 10 AUDIO
TITLE "Murder"
PERFORMER "Within Temptation"
INDEX 01 38:28:26
TRACK 11 AUDIO
TITLE "A demonґs fate"
PERFORMER "Within Temptation"
INDEX 01 42:44:61
TRACK 12 AUDIO
TITLE "Stairway to the skies"
PERFORMER "Within Temptation"
INDEX 01 48:15:05
[/code:1]
-Released by:
Скачать

Скачать бесплатно и на максимальной скорости!

Как скачивать? · Что такое торрент? · Рейтинг и ограничения



Последний раз редактировалось: Three7 (2011-03-28 23:51), всего редактировалось 1 раз
[Профиль]  [ЛС] 
Показать сообщения:    
Ответить на тему

Текущее время: Сегодня 18:58

Часовой пояс: GMT + 3



Вы не можете начинать темы
Вы не можете отвечать на сообщения
Вы не можете редактировать свои сообщения
Вы не можете удалять свои сообщения
Вы не можете голосовать в опросах
Вы не можете прикреплять файлы к сообщениям
Вы не можете скачивать файлы