(Symphonic Gothic Metal) Delain - April Rain (Limited Edition)‎ - 2009, FLAC (tracks + .cue), lossless

Ответить на тему
 
Автор Сообщение

Three7 ®

Стаж: 9 лет 7 месяцев

Сообщений: 464

Откуда: Тула

Пост 05-Апр-2011 09:22

[Цитировать] 

Delain - April Rain (Limited Edition)‎- Страна: Netherlands
Жанр: Symphonic Gothic Metal
Год выпуска: 2009
Формат: FLAC (tracks + .cue)
Битрейт аудио: lossless
Продолжительность: 00:50:19

Трэклист:
01. April Rain
02. Stay Forever
03. Invidia
04. Control The Storm
05. On The Other Side
06. Virtue And Vice
07. Go Away
08. Start Swimming
09. Lost
10. I'll Reach You
11. Nothing Left
12. Come Closer (Bonus Track)

log EAC

[code:1]Exact Audio Copy V0.99 prebeta 4 from 23. January 2008
EAC extraction logfile from 1. April 2009, 18:33
Delain / April Rain (Limited Edition)
Used drive : PLEXTOR DVDR PX-760A Adapter: 1 ID: 0
Read mode : Secure
Utilize accurate stream : Yes
Defeat audio cache : Yes
Make use of C2 pointers : No
Read offset correction : 30
Overread into Lead-In and Lead-Out : No
Fill up missing offset samples with silence : Yes
Delete leading and trailing silent blocks : No
Null samples used in CRC calculations : No
Used interface : Installed external ASPI interface
Gap handling : Appended to previous track
Used output format : User Defined Encoder
Selected bitrate : 256 kBit/s
Quality : High
Add ID3 tag : No
Command line compressor : C:\Program Files\FLAC\flac.exe
Additional command line options : -8 %s
TOC of the extracted CD
Track | Start | Length | Start sector | End sector
---------------------------------------------------------
1 | 0:00.00 | 4:36.73 | 0 | 20772
2 | 4:36.73 | 4:26.52 | 20773 | 40774
3 | 9:03.50 | 3:49.12 | 40775 | 57961
4 | 12:52.62 | 4:14.33 | 57962 | 77044
5 | 17:07.20 | 4:11.36 | 77045 | 95905
6 | 21:18.56 | 3:55.48 | 95906 | 113578
7 | 25:14.29 | 3:37.58 | 113579 | 129911
8 | 28:52.12 | 5:21.11 | 129912 | 153997
9 | 34:13.23 | 3:24.12 | 153998 | 169309
10 | 37:37.35 | 3:30.15 | 169310 | 185074
11 | 41:07.50 | 4:41.42 | 185075 | 206191
12 | 45:49.17 | 4:30.58 | 206192 | 226499
Track 1
Filename F:\New Rip's\01. April Rain.wav
Pre-gap length 0:00:02.00
Peak level 98.8 %
Track quality 100.0 %
Test CRC 98E94FA3
Copy CRC 98E94FA3
Copy OK
Track 2
Filename F:\New Rip's\02. Stay Forever.wav
Pre-gap length 0:00:00.40
Peak level 98.8 %
Track quality 100.0 %
Test CRC 4E9CD451
Copy CRC 4E9CD451
Copy OK
Track 3
Filename F:\New Rip's\03. Invidia.wav
Pre-gap length 0:00:00.28
Peak level 98.8 %
Track quality 100.0 %
Test CRC 8043DAD9
Copy CRC 8043DAD9
Copy OK
Track 4
Filename F:\New Rip's\04. Control The Storm.wav
Pre-gap length 0:00:01.48
Peak level 100.0 %
Track quality 100.0 %
Test CRC 7BAA6121
Copy CRC 7BAA6121
Copy OK
Track 5
Filename F:\New Rip's\05. On The Other Side.wav
Pre-gap length 0:00:01.71
Peak level 98.8 %
Track quality 100.0 %
Test CRC CBBFD451
Copy CRC CBBFD451
Copy OK
Track 6
Filename F:\New Rip's\06. Virtue And Vice.wav
Pre-gap length 0:00:01.53
Peak level 98.8 %
Track quality 100.0 %
Test CRC FF2F0EEF
Copy CRC FF2F0EEF
Copy OK
Track 7
Filename F:\New Rip's\07. Go Away.wav
Pre-gap length 0:00:00.28
Peak level 98.8 %
Track quality 100.0 %
Test CRC D563EE14
Copy CRC D563EE14
Copy OK
Track 8
Filename F:\New Rip's\08. Start Swimming.wav
Pre-gap length 0:00:01.57
Peak level 98.8 %
Track quality 100.0 %
Test CRC B3E4C3A2
Copy CRC B3E4C3A2
Copy OK
Track 9
Filename F:\New Rip's\09. Lost.wav
Pre-gap length 0:00:01.49
Peak level 98.8 %
Track quality 100.0 %
Test CRC A0A16758
Copy CRC A0A16758
Copy OK
Track 10
Filename F:\New Rip's\10. I'll Reach You.wav
Pre-gap length 0:00:00.46
Peak level 98.8 %
Track quality 99.9 %
Test CRC D2331B61
Copy CRC D2331B61
Copy OK
Track 11
Filename F:\New Rip's\11. Nothing Left.wav
Pre-gap length 0:00:00.55
Peak level 98.8 %
Track quality 99.9 %
Test CRC 914999D9
Copy CRC 914999D9
Copy OK
Track 12
Filename F:\New Rip's\12. Come Closer (Bonus Track).wav
Pre-gap length 0:00:01.65
Peak level 98.8 %
Track quality 100.0 %
Test CRC 5E37F532
Copy CRC 5E37F532
Copy OK
No errors occurred
End of status report
[/code:1]

.cue

[code:1]REM GENRE "Gothic Metal"
REM DATE 2009
REM DISCID A80BCC0C
REM COMMENT "ExactAudioCopy v0.99pb4"
PERFORMER "Delain"
TITLE "April Rain (Limited Edition)"
FILE "01. April Rain.wav" WAVE
TRACK 01 AUDIO
TITLE "April Rain"
PERFORMER "Delain"
ISRC NLA320888370
FLAGS DCP
INDEX 01 00:00:00
TRACK 02 AUDIO
TITLE "Stay Forever"
PERFORMER "Delain"
ISRC NLA320888590
FLAGS DCP
INDEX 00 04:36:33
FILE "02. Stay Forever.wav" WAVE
INDEX 01 00:00:00
TRACK 03 AUDIO
TITLE "Invidia"
PERFORMER "Delain"
ISRC NLA320888530
FLAGS DCP
INDEX 00 04:26:24
FILE "03. Invidia.wav" WAVE
INDEX 01 00:00:00
TRACK 04 AUDIO
TITLE "Control The Storm"
PERFORMER "Delain"
ISRC NLA320888490
FLAGS DCP
INDEX 00 03:47:39
FILE "04. Control The Storm.wav" WAVE
INDEX 01 00:00:00
TRACK 05 AUDIO
TITLE "On The Other Side"
PERFORMER "Delain"
ISRC NLA320888570
FLAGS DCP
INDEX 00 04:12:37
FILE "05. On The Other Side.wav" WAVE
INDEX 01 00:00:00
TRACK 06 AUDIO
TITLE "Virtue And Vice"
PERFORMER "Delain"
ISRC NLA320888600
FLAGS DCP
INDEX 00 04:09:58
FILE "06. Virtue And Vice.wav" WAVE
INDEX 01 00:00:00
TRACK 07 AUDIO
TITLE "Go Away"
PERFORMER "Delain"
ISRC NLA320888500
FLAGS DCP
INDEX 00 03:55:20
FILE "07. Go Away.wav" WAVE
INDEX 01 00:00:00
TRACK 08 AUDIO
TITLE "Start Swimming"
PERFORMER "Delain"
ISRC NLA320888580
FLAGS DCP
INDEX 00 03:36:01
FILE "08. Start Swimming.wav" WAVE
INDEX 01 00:00:00
TRACK 09 AUDIO
TITLE "Lost"
PERFORMER "Delain"
ISRC NLA320888540
FLAGS DCP
INDEX 00 05:19:37
FILE "09. Lost.wav" WAVE
INDEX 01 00:00:00
TRACK 10 AUDIO
TITLE "I'll Reach You"
PERFORMER "Delain"
ISRC NLA320888520
FLAGS DCP
INDEX 00 03:23:41
FILE "10. I'll Reach You.wav" WAVE
INDEX 01 00:00:00
TRACK 11 AUDIO
TITLE "Nothing Left"
PERFORMER "Delain"
ISRC NLA320888560
FLAGS DCP
INDEX 00 03:29:35
FILE "11. Nothing Left.wav" WAVE
INDEX 01 00:00:00
TRACK 12 AUDIO
TITLE "Come Closer (Bonus Track)"
PERFORMER "Delain"
ISRC NLA320888480
FLAGS DCP
INDEX 00 04:39:52
FILE "12. Come Closer (Bonus Track).wav" WAVE
INDEX 01 00:00:00
[/code:1]
Скачать

Скачать бесплатно и на максимальной скорости!

Как скачивать? · Что такое торрент? · Рейтинг и ограничения

[Профиль]  [ЛС] 
Показать сообщения:    
Ответить на тему

Текущее время: Сегодня 18:57

Часовой пояс: GMT + 3



Вы не можете начинать темы
Вы не можете отвечать на сообщения
Вы не можете редактировать свои сообщения
Вы не можете удалять свои сообщения
Вы не можете голосовать в опросах
Вы не можете прикреплять файлы к сообщениям
Вы не можете скачивать файлы