(Modern Metal) In Flames - Sounds of a Playground Fading - 2011, FLAC (image + .cue), lossless

Ответить на тему
 
Автор Сообщение

Three7 ®

Стаж: 9 лет 7 месяцев

Сообщений: 464

Откуда: Тула

Пост 28-Июн-2011 23:20

[Цитировать] 

In Flames - Sounds of a Playground Fading- Страна: Sweden
Жанр: Modern Metal
Год выпуска: 2011
Формат: FLAC (image + .cue)
Битрейт аудио: lossless
Продолжительность: 00:53:56
Трэклист:
01. Sounds Of A Playground Fading
02. Deliver Us
03. All For Me
04. The Puzzle
05. Fear Is The Weakness
06. Where The Dead Ships Dwell
07. The Attic
08. Darker Times
09. Ropes
10. Enter Tragedy
11. Jester's Door
12. A New Dawn
13. Liberation

Лог создания рипа

[code:1]Exact Audio Copy V0.99 prebeta 4 from 23. January 2008
EAC extraction logfile from 25. June 2011, 10:21
In Flames / Sounds Of A Playground Fading
Used drive : ATAPI iHAP122 9 Adapter: 3 ID: 0
Read mode : Secure
Utilize accurate stream : Yes
Defeat audio cache : Yes
Make use of C2 pointers : No
Read offset correction : 6
Overread into Lead-In and Lead-Out : No
Fill up missing offset samples with silence : Yes
Delete leading and trailing silent blocks : No
Null samples used in CRC calculations : Yes
Used interface : Installed external ASPI interface
Used output format : User Defined Encoder
Selected bitrate : 40 kBit/s
Quality : High
Add ID3 tag : No
Command line compressor : C:\Program Files\Exact Audio Copy\flac.exe
Additional command line options : -6 -V %s
TOC of the extracted CD
Track | Start | Length | Start sector | End sector
---------------------------------------------------------
1 | 0:00.00 | 4:42.74 | 0 | 21223
2 | 4:42.74 | 3:30.68 | 21224 | 37041
3 | 8:13.67 | 4:31.18 | 37042 | 57384
4 | 12:45.10 | 4:34.68 | 57385 | 78002
5 | 17:20.03 | 4:03.49 | 78003 | 96276
6 | 21:23.52 | 4:27.59 | 96277 | 116360
7 | 25:51.36 | 3:16.27 | 116361 | 131087
8 | 29:07.63 | 3:25.06 | 131088 | 146468
9 | 32:32.69 | 3:42.16 | 146469 | 163134
10 | 36:15.10 | 3:58.73 | 163135 | 181057
11 | 40:14.08 | 2:37.01 | 181058 | 192833
12 | 42:51.09 | 5:53.13 | 192834 | 219321
13 | 48:44.22 | 5:12.43 | 219322 | 242764
Range status and errors
Selected range
Filename D:\Download\In Flames - Sounds Of A Playground Fading.wav
Peak level 100.0 %
Range quality 100.0 %
Copy CRC 82E81911
Copy OK
No errors occurred
AccurateRip summary
Track 1 not present in database
Track 2 not present in database
Track 3 not present in database
Track 4 not present in database
Track 5 not present in database
Track 6 not present in database
Track 7 not present in database
Track 8 not present in database
Track 9 not present in database
Track 10 not present in database
Track 11 not present in database
Track 12 not present in database
Track 13 not present in database
None of the tracks are present in the AccurateRip database
End of status report[/code:1]

Содержание индексной карты (.cue)

[code:1]REM GENRE "Melodic Death Metal"
REM DATE 2011
REM DISCID C50CA40D
REM COMMENT "ExactAudioCopy v0.99pb4"
PERFORMER "In Flames"
TITLE "Sounds Of A Playground Fading"
FILE "In Flames - Sounds Of A Playground Fading.flac" WAVE
TRACK 01 AUDIO
TITLE "Sounds of a Playground Fading"
PERFORMER "In Flames"
INDEX 01 00:00:00
TRACK 02 AUDIO
TITLE "Deliver Us"
PERFORMER "In Flames"
INDEX 01 04:42:74
TRACK 03 AUDIO
TITLE "All For Me"
PERFORMER "In Flames"
INDEX 01 08:13:67
TRACK 04 AUDIO
TITLE "The Puzzle"
PERFORMER "In Flames"
INDEX 01 12:45:10
TRACK 05 AUDIO
TITLE "Fear is the Weakness"
PERFORMER "In Flames"
INDEX 01 17:20:03
TRACK 06 AUDIO
TITLE "Where the Dead Ships Dwell"
PERFORMER "In Flames"
INDEX 01 21:23:52
TRACK 07 AUDIO
TITLE "The Attic"
PERFORMER "In Flames"
INDEX 01 25:51:36
TRACK 08 AUDIO
TITLE "Darker Times"
PERFORMER "In Flames"
INDEX 01 29:07:63
TRACK 09 AUDIO
TITLE "Ropes"
PERFORMER "In Flames"
INDEX 01 32:32:69
TRACK 10 AUDIO
TITLE "Enter Tragedy"
PERFORMER "In Flames"
INDEX 01 36:15:10
TRACK 11 AUDIO
TITLE "Jester's Door"
PERFORMER "In Flames"
INDEX 01 40:14:08
TRACK 12 AUDIO
TITLE "A New Dawn"
PERFORMER "In Flames"
INDEX 01 42:51:09
TRACK 13 AUDIO
TITLE "Liberation"
PERFORMER "In Flames"
INDEX 01 48:44:22[/code:1]
Скачать

Скачать бесплатно и на максимальной скорости!

Как скачивать? · Что такое торрент? · Рейтинг и ограничения

[Профиль]  [ЛС] 
Показать сообщения:    
Ответить на тему

Текущее время: Сегодня 20:47

Часовой пояс: GMT + 3



Вы не можете начинать темы
Вы не можете отвечать на сообщения
Вы не можете редактировать свои сообщения
Вы не можете удалять свои сообщения
Вы не можете голосовать в опросах
Вы не можете прикреплять файлы к сообщениям
Вы не можете скачивать файлы