(Alt. Rock / Christian / Female Vocal) Fireflight - For Those Who Wait - 2010, FLAC (tracks+.cue), lossless

Ответить на тему
 
Автор Сообщение

Three7 ®

Стаж: 10 лет

Сообщений: 464

Откуда: Тула

Пост 11-Май-2010 19:13

[Цитировать] 

Fireflight - For Those Who Wait
Страна: USA
Жанр: Alt. Rock / Christian / Female Vocal
Год выпуска: 2010
Формат: FLAC
Битрейт аудио: tracks+.cue
Продолжительность: 00:35:18

Трэклист:
    01. For Those Who Wait
    02. Desperate
    03. Fire In My Eyes
    04. Core Of My Addiction
    05. What I've Overcome
    06. Name
    07. New Perspective
    08. You Give Me That Feeling
    09. All I Need To Be
    10. Recovery Begins

log

X Lossless Decoder version 20100209 (116.0)
XLD extraction logfile from 2010-02-08 21:13:26 -0500
Fireflight / For Those Who Wait
Used drive : PIONEER DVD-RW DVR-218L (revision 1.01)
Use cdparanoia mode : YES (CDParanoia III 10.2 engine)
Disable audio cache : OK for the drive with cache less than 2750KB
Make use of C2 pointers : NO
Read offset correction : 6
Max retry count : 100
TOC of the extracted CD
Track | Start | Length | Start sector | End sector
---------------------------------------------------------
1 | 00:00:00 | 04:06:51 | 0 | 18500
2 | 04:06:51 | 02:54:37 | 18501 | 31587
3 | 07:01:13 | 02:58:30 | 31588 | 44967
4 | 09:59:43 | 03:13:62 | 44968 | 59504
5 | 13:13:30 | 03:06:09 | 59505 | 73463
6 | 16:19:39 | 03:48:71 | 73464 | 90634
7 | 20:08:35 | 03:18:63 | 90635 | 105547
8 | 23:27:23 | 03:23:00 | 105548 | 120772
9 | 26:50:23 | 03:35:12 | 120773 | 136909
10 | 30:25:35 | 04:52:24 | 136910 | 158833
Track 01
Filename : /Users/johnnyAWESOME/Music/_FLAC/Fireflight - For Those Who Wait [FLAC]/01 For Those Who Wait.flac
Pre-gap length : 00:02:00
CRC32 hash (test run) : B8DB64D1
CRC32 hash : B8DB64D1
CRC32 hash (skip zero) : 8EF67C47
AccurateRip signature : D09B5A77
->Track not present in AccurateRip database.
Statistics
Read error : 0
Skipped (treated as error) : 0
Edge jitter error (maybe fixed) : 0
Atom jitter error (maybe fixed) : 0
Drift error (maybe fixed) : 0
Dropped bytes error (maybe fixed) : 0
Duplicated bytes error (maybe fixed) : 0
Inconsistency in error sectors : 0
Track 02
Filename : /Users/johnnyAWESOME/Music/_FLAC/Fireflight - For Those Who Wait [FLAC]/02 Desperate.flac
CRC32 hash (test run) : 1D0596D9
CRC32 hash : 1D0596D9
CRC32 hash (skip zero) : 3C8067B3
AccurateRip signature : A9BD21F9
->Track not present in AccurateRip database.
Statistics
Read error : 0
Skipped (treated as error) : 0
Edge jitter error (maybe fixed) : 0
Atom jitter error (maybe fixed) : 0
Drift error (maybe fixed) : 0
Dropped bytes error (maybe fixed) : 0
Duplicated bytes error (maybe fixed) : 0
Inconsistency in error sectors : 0
Track 03
Filename : /Users/johnnyAWESOME/Music/_FLAC/Fireflight - For Those Who Wait [FLAC]/03 Fire In My Eyes.flac
CRC32 hash (test run) : 7518EAB8
CRC32 hash : 7518EAB8
CRC32 hash (skip zero) : 2C997CDC
AccurateRip signature : 7C5F01AC
->Track not present in AccurateRip database.
Statistics
Read error : 0
Skipped (treated as error) : 0
Edge jitter error (maybe fixed) : 0
Atom jitter error (maybe fixed) : 0
Drift error (maybe fixed) : 0
Dropped bytes error (maybe fixed) : 0
Duplicated bytes error (maybe fixed) : 0
Inconsistency in error sectors : 0
Track 04
Filename : /Users/johnnyAWESOME/Music/_FLAC/Fireflight - For Those Who Wait [FLAC]/04 Core of My Addiction.flac
CRC32 hash (test run) : C80C716D
CRC32 hash : C80C716D
CRC32 hash (skip zero) : D57FBE3D
AccurateRip signature : A446F644
->Track not present in AccurateRip database.
Statistics
Read error : 0
Skipped (treated as error) : 0
Edge jitter error (maybe fixed) : 0
Atom jitter error (maybe fixed) : 0
Drift error (maybe fixed) : 0
Dropped bytes error (maybe fixed) : 0
Duplicated bytes error (maybe fixed) : 0
Inconsistency in error sectors : 0
Track 05
Filename : /Users/johnnyAWESOME/Music/_FLAC/Fireflight - For Those Who Wait [FLAC]/05 What I've Overcome.flac
CRC32 hash (test run) : 7CD836A6
CRC32 hash : 7CD836A6
CRC32 hash (skip zero) : 4E5D0C53
AccurateRip signature : A02C572B
->Track not present in AccurateRip database.
Statistics
Read error : 0
Skipped (treated as error) : 0
Edge jitter error (maybe fixed) : 0
Atom jitter error (maybe fixed) : 0
Drift error (maybe fixed) : 0
Dropped bytes error (maybe fixed) : 0
Duplicated bytes error (maybe fixed) : 0
Inconsistency in error sectors : 0
Track 06
Filename : /Users/johnnyAWESOME/Music/_FLAC/Fireflight - For Those Who Wait [FLAC]/06 Name.flac
CRC32 hash (test run) : 08DF8E88
CRC32 hash : 08DF8E88
CRC32 hash (skip zero) : B65FE5BC
AccurateRip signature : 3814A5C7
->Track not present in AccurateRip database.
Statistics
Read error : 0
Skipped (treated as error) : 0
Edge jitter error (maybe fixed) : 0
Atom jitter error (maybe fixed) : 0
Drift error (maybe fixed) : 0
Dropped bytes error (maybe fixed) : 0
Duplicated bytes error (maybe fixed) : 0
Inconsistency in error sectors : 0
Track 07
Filename : /Users/johnnyAWESOME/Music/_FLAC/Fireflight - For Those Who Wait [FLAC]/07 New Perspective.flac
CRC32 hash (test run) : 93AEAC70
CRC32 hash : 93AEAC70
CRC32 hash (skip zero) : DB3F1E2A
AccurateRip signature : 2364DC53
->Track not present in AccurateRip database.
Statistics
Read error : 0
Skipped (treated as error) : 0
Edge jitter error (maybe fixed) : 0
Atom jitter error (maybe fixed) : 0
Drift error (maybe fixed) : 0
Dropped bytes error (maybe fixed) : 0
Duplicated bytes error (maybe fixed) : 0
Inconsistency in error sectors : 0
Track 08
Filename : /Users/johnnyAWESOME/Music/_FLAC/Fireflight - For Those Who Wait [FLAC]/08 You Give Me That Feeling.flac
CRC32 hash (test run) : 14D7918A
CRC32 hash : 14D7918A
CRC32 hash (skip zero) : CA1EAB01
AccurateRip signature : 8784457E
->Track not present in AccurateRip database.
Statistics
Read error : 0
Skipped (treated as error) : 0
Edge jitter error (maybe fixed) : 0
Atom jitter error (maybe fixed) : 0
Drift error (maybe fixed) : 0
Dropped bytes error (maybe fixed) : 0
Duplicated bytes error (maybe fixed) : 0
Inconsistency in error sectors : 0
Track 09
Filename : /Users/johnnyAWESOME/Music/_FLAC/Fireflight - For Those Who Wait [FLAC]/09 All I Need to Belong.flac
Pre-gap length : 00:00:21
CRC32 hash (test run) : 09C598D3
CRC32 hash : 09C598D3
CRC32 hash (skip zero) : 0B66ED8D
AccurateRip signature : C5878E42
->Track not present in AccurateRip database.
Statistics
Read error : 0
Skipped (treated as error) : 0
Edge jitter error (maybe fixed) : 0
Atom jitter error (maybe fixed) : 0
Drift error (maybe fixed) : 0
Dropped bytes error (maybe fixed) : 0
Duplicated bytes error (maybe fixed) : 0
Inconsistency in error sectors : 0
Track 10
Filename : /Users/johnnyAWESOME/Music/_FLAC/Fireflight - For Those Who Wait [FLAC]/10 Recovery Begins.flac
Pre-gap length : 00:00:06
CRC32 hash (test run) : 12673114
CRC32 hash : 12673114
CRC32 hash (skip zero) : 3A939E95
AccurateRip signature : B57186D9
->Track not present in AccurateRip database.
Statistics
Read error : 0
Skipped (treated as error) : 0
Edge jitter error (maybe fixed) : 0
Atom jitter error (maybe fixed) : 0
Drift error (maybe fixed) : 0
Dropped bytes error (maybe fixed) : 0
Duplicated bytes error (maybe fixed) : 0
Inconsistency in error sectors : 0
No errors occurred
End of status report

.cue

TITLE "For Those Who Wait"
PERFORMER "Fireflight"
REM GENRE "Rock"
REM DATE 2010
FILE "01 For Those Who Wait.wav" WAVE
TRACK 01 AUDIO
TITLE "For Those Who Wait"
PERFORMER "Fireflight"
ISRC USA5W0901302
INDEX 01 00:00:00
FILE "02 Desperate.wav" WAVE
TRACK 02 AUDIO
TITLE "Desperate"
PERFORMER "Fireflight"
ISRC USA5W0901303
INDEX 01 00:00:00
FILE "03 Fire In My Eyes.wav" WAVE
TRACK 03 AUDIO
TITLE "Fire In My Eyes"
PERFORMER "Fireflight"
ISRC USA5W0901304
INDEX 01 00:00:00
FILE "04 Core of My Addiction.wav" WAVE
TRACK 04 AUDIO
TITLE "Core of My Addiction"
PERFORMER "Fireflight"
ISRC USA5W0901305
INDEX 01 00:00:00
FILE "05 What I've Overcome.wav" WAVE
TRACK 05 AUDIO
TITLE "What I've Overcome"
PERFORMER "Fireflight"
ISRC USA5W0901306
INDEX 01 00:00:00
FILE "06 Name.wav" WAVE
TRACK 06 AUDIO
TITLE "Name"
PERFORMER "Fireflight"
ISRC USA5W0901307
INDEX 01 00:00:00
FILE "07 New Perspective.wav" WAVE
TRACK 07 AUDIO
TITLE "New Perspective"
PERFORMER "Fireflight"
ISRC USA5W0901308
INDEX 01 00:00:00
FILE "08 You Give Me That Feeling.wav" WAVE
TRACK 08 AUDIO
TITLE "You Give Me That Feeling"
PERFORMER "Fireflight"
ISRC USA5W0901309
INDEX 01 00:00:00
TRACK 09 AUDIO
TITLE "All I Need to Belong"
PERFORMER "Fireflight"
ISRC USA5W0901310
INDEX 00 03:22:54
FILE "09 All I Need to Belong.wav" WAVE
INDEX 01 00:00:00
TRACK 10 AUDIO
TITLE "Recovery Begins"
PERFORMER "Fireflight"
ISRC USA5W0901311
INDEX 00 03:35:06
FILE "10 Recovery Begins.wav" WAVE
INDEX 01 00:00:00
Скачать

Скачать бесплатно и на максимальной скорости!

Как скачивать? · Что такое торрент? · Рейтинг и ограничения

[Профиль]  [ЛС] 
Показать сообщения:    
Ответить на тему

Текущее время: Сегодня 15:49

Часовой пояс: GMT + 3



Вы не можете начинать темы
Вы не можете отвечать на сообщения
Вы не можете редактировать свои сообщения
Вы не можете удалять свои сообщения
Вы не можете голосовать в опросах
Вы не можете прикреплять файлы к сообщениям
Вы не можете скачивать файлы