(Alt.Rock / Mall Emo) The Used - Artwork - 2009, FLAC (tracks+.cue), lossless

Ответить на тему
 
Автор Сообщение

Three7 ®

Стаж: 10 лет

Сообщений: 464

Откуда: Тула

Пост 11-Май-2010 20:35

[Цитировать] 

The Used - Artwork
Жанр: Alt.Rock / Mall Emo
Год выпуска: 2009
Формат: FLAC (tracks+.cue)
Битрейт аудио: lossless
Продолжительность: 00:43:14

Трэклист:
1. Blood On My Hands
2. Empty With You
3. Born To Quit
4. Kissing You Goodbye
5. Sold My Soul
6. Watered Down
7. On The Cross
8. Come Undone
9. Meant To Die
10. The Best Of Me
11. Men Are All The Same

log EAC

Exact Audio Copy V0.99 prebeta 4 from 23. January 2008
EAC extraction logfile from 28. August 2009, 14:43
The Used / Artwork
Used drive : TSSTcorpCD/DVDW TS-H652L Adapter: 5 ID: 0
Read mode : Secure
Utilize accurate stream : Yes
Defeat audio cache : Yes
Make use of C2 pointers : No
Read offset correction : 6
Overread into Lead-In and Lead-Out : No
Fill up missing offset samples with silence : Yes
Delete leading and trailing silent blocks : No
Null samples used in CRC calculations : Yes
Used interface : Native Win32 interface for Win NT & 2000
Gap handling : Appended to previous track
Used output format : User Defined Encoder
Selected bitrate : 128 kBit/s
Quality : High
Add ID3 tag : No
Command line compressor : C:\Program Files\Exact Audio Copy\Flac\flac.exe
Additional command line options : -V -8 -T "artist=%a" -T "title=%t" -T "album=%g" -T "date=%y" -T "tracknumber=%n" -T "genre=%m" %s
TOC of the extracted CD
Track | Start | Length | Start sector | End sector
---------------------------------------------------------
1 | 0:00.00 | 3:17.65 | 0 | 14839
2 | 3:17.65 | 3:23.39 | 14840 | 30103
3 | 6:41.29 | 3:33.71 | 30104 | 46149
4 | 10:15.25 | 4:08.54 | 46150 | 64803
5 | 14:24.04 | 4:12.34 | 64804 | 83737
6 | 18:36.38 | 3:57.39 | 83738 | 101551
7 | 22:34.02 | 3:07.19 | 101552 | 115595
8 | 25:41.21 | 3:23.53 | 115596 | 130873
9 | 29:04.74 | 3:46.06 | 130874 | 147829
10 | 32:51.05 | 4:29.17 | 147830 | 168021
11 | 37:20.22 | 5:54.32 | 168022 | 194603
Track 1
Filename L:\The Used - Artwork [FLAC]-2009\01 - Blood on my Hands.wav
Pre-gap length 0:00:02.00
Peak level 100.0 %
Track quality 100.0 %
Test CRC 5664A503
Copy CRC 5664A503
Track not present in AccurateRip database
Copy OK
Track 2
Filename L:\The Used - Artwork [FLAC]-2009\02 - Empty With You.wav
Peak level 100.0 %
Track quality 99.9 %
Test CRC B00A22CB
Copy CRC B00A22CB
Track not present in AccurateRip database
Copy OK
Track 3
Filename L:\The Used - Artwork [FLAC]-2009\03 - Born to Quit.wav
Peak level 100.0 %
Track quality 100.0 %
Test CRC 03472140
Copy CRC 03472140
Track not present in AccurateRip database
Copy OK
Track 4
Filename L:\The Used - Artwork [FLAC]-2009\04 - Kissing You Goodbye.wav
Peak level 100.0 %
Track quality 99.9 %
Test CRC 5926C81F
Copy CRC 5926C81F
Track not present in AccurateRip database
Copy OK
Track 5
Filename L:\The Used - Artwork [FLAC]-2009\05 - Sold My Soul.wav
Peak level 100.0 %
Track quality 100.0 %
Test CRC 16AD364C
Copy CRC 16AD364C
Track not present in AccurateRip database
Copy OK
Track 6
Filename L:\The Used - Artwork [FLAC]-2009\06 - Watered Down.wav
Peak level 100.0 %
Track quality 100.0 %
Test CRC ED1681AC
Copy CRC ED1681AC
Track not present in AccurateRip database
Copy OK
Track 7
Filename L:\The Used - Artwork [FLAC]-2009\07 - On the Cross.wav
Peak level 100.0 %
Track quality 100.0 %
Test CRC F87C7931
Copy CRC F87C7931
Track not present in AccurateRip database
Copy OK
Track 8
Filename L:\The Used - Artwork [FLAC]-2009\08 - Come Undone.wav
Peak level 100.0 %
Track quality 100.0 %
Test CRC 7B40EDFA
Copy CRC 7B40EDFA
Track not present in AccurateRip database
Copy OK
Track 9
Filename L:\The Used - Artwork [FLAC]-2009\09 - Meant to Die.wav
Peak level 100.0 %
Track quality 100.0 %
Test CRC E47FC403
Copy CRC E47FC403
Track not present in AccurateRip database
Copy OK
Track 10
Filename L:\The Used - Artwork [FLAC]-2009\10 - The Best of Me.wav
Peak level 100.0 %
Track quality 100.0 %
Test CRC 4B699908
Copy CRC 4B699908
Track not present in AccurateRip database
Copy OK
Track 11
Filename L:\The Used - Artwork [FLAC]-2009\11 - Men Are All the Same.wav
Peak level 100.0 %
Track quality 100.0 %
Test CRC EE8B585A
Copy CRC EE8B585A
Track not present in AccurateRip database
Copy OK
None of the tracks are present in the AccurateRip database
No errors occurred
End of status report
Скачать

Скачать бесплатно и на максимальной скорости!

Как скачивать? · Что такое торрент? · Рейтинг и ограничения

[Профиль]  [ЛС] 
Показать сообщения:    
Ответить на тему

Текущее время: Сегодня 22:01

Часовой пояс: GMT + 3



Вы не можете начинать темы
Вы не можете отвечать на сообщения
Вы не можете редактировать свои сообщения
Вы не можете удалять свои сообщения
Вы не можете голосовать в опросах
Вы не можете прикреплять файлы к сообщениям
Вы не можете скачивать файлы