(Heavy Metal) Маврин - Моя свобода - 2010, APE (tracks), lossless

Ответить на тему
 
Автор Сообщение

marving71 ®

Стаж: 8 лет 9 месяцев

Сообщений: 115

Пост 26-Дек-2010 17:51

[Цитировать] 

Маврин - Моя свобода
Страна: Россия
Жанр: Heavy Metal
Год выпуска: 2010
Формат: APE (tracks)
Битрейт аудио: lossless
Продолжительность: 50:35
Трэклист:
01. Рождение (1:14)
02. Моё время (5:29)
03. Моя свобода (10:17)
04. Душа (5:55)
05. Новый день (7:51)
06. Моё небо (5:38)
07. Падшая звезда (2:55)
08. Final (2:08)
09. Show time (3:46)
10. Утоли мои печали (5:22)

Бонус: видео 'Маврин - Утоли мои печали'

Video: Xvid 640x360 25.00fps 1553Kbps
Audio: MPEG Audio 48000Hz stereo 256Kbps

Бонус: видео 'Маврин - Утоли мои печали (альтернативная версия)'

Video: Xvid 640x360 25.00fps 1582Kbps
Audio: MPEG Audio 48000Hz stereo 256Kbps

Отчёт EAC

Exact Audio Copy V0.99 prebeta 5 from 4. May 2009
EAC extraction logfile from 19. November 2010, 19:43
Маврин / Моя свобода
Used drive : Optiarc DVD RW AD-7173S Adapter: 6 ID: 0
Read mode : Secure
Utilize accurate stream : Yes
Defeat audio cache : Yes
Make use of C2 pointers : No
Read offset correction : 48
Overread into Lead-In and Lead-Out : No
Fill up missing offset samples with silence : Yes
Delete leading and trailing silent blocks : No
Null samples used in CRC calculations : Yes
Used interface : Native Win32 interface for Win NT & 2000
Gap handling : Appended to previous track
Used output format : Internal WAV Routines
Sample format : 44.100 Hz; 16 Bit; Stereo
TOC of the extracted CD
Track | Start | Length | Start sector | End sector
---------------------------------------------------------
1 | 0:00.00 | 1:14.29 | 0 | 5578
2 | 1:14.29 | 5:28.59 | 5579 | 30237
3 | 6:43.13 | 10:16.49 | 30238 | 76486
4 | 16:59.62 | 5:54.68 | 76487 | 103104
5 | 22:54.55 | 7:50.54 | 103105 | 138408
6 | 30:45.34 | 5:38.03 | 138409 | 163761
7 | 36:23.37 | 2:55.16 | 163762 | 176902
8 | 39:18.53 | 2:07.58 | 176903 | 186485
9 | 41:26.36 | 3:46.06 | 186486 | 203441
10 | 45:12.42 | 5:22.30 | 203442 | 227621
Track 1
Filename D:\lossless\Моя свобода\01 Маврин - Рождение.wav
Pre-gap length 0:00:02.00
Peak level 100.0 %
Track quality 99.8 %
Test CRC E1A647F2
Copy CRC E1A647F2
Track not present in AccurateRip database
Copy OK
Track 2
Filename D:\lossless\Моя свобода\02 Маврин - Моё время.wav
Peak level 100.0 %
Track quality 100.0 %
Test CRC 6B17E208
Copy CRC 6B17E208
Track not present in AccurateRip database
Copy OK
Track 3
Filename D:\lossless\Моя свобода\03 Маврин - Моя свобода.wav
Peak level 100.0 %
Track quality 99.9 %
Test CRC 1903425D
Copy CRC 1903425D
Track not present in AccurateRip database
Copy OK
Track 4
Filename D:\lossless\Моя свобода\04 Маврин - Душа.wav
Peak level 100.0 %
Track quality 100.0 %
Test CRC 4423C386
Copy CRC 4423C386
Track not present in AccurateRip database
Copy OK
Track 5
Filename D:\lossless\Моя свобода\05 Маврин - Новый день.wav
Peak level 100.0 %
Track quality 100.0 %
Test CRC 3F9E76DE
Copy CRC 3F9E76DE
Track not present in AccurateRip database
Copy OK
Track 6
Filename D:\lossless\Моя свобода\06 Маврин - Моё небо.wav
Peak level 100.0 %
Track quality 99.9 %
Test CRC 31F29AF1
Copy CRC 31F29AF1
Track not present in AccurateRip database
Copy OK
Track 7
Filename D:\lossless\Моя свобода\07 Маврин - Падшая звезда.wav
Peak level 100.0 %
Track quality 100.0 %
Test CRC 09738D6B
Copy CRC 09738D6B
Track not present in AccurateRip database
Copy OK
Track 8
Filename D:\lossless\Моя свобода\08 Маврин - Final.wav
Peak level 100.0 %
Track quality 100.0 %
Test CRC 67F52AC3
Copy CRC 67F52AC3
Track not present in AccurateRip database
Copy OK
Track 9
Filename D:\lossless\Моя свобода\09 Маврин - Show time.wav
Peak level 100.0 %
Track quality 100.0 %
Test CRC 2B16193A
Copy CRC 2B16193A
Track not present in AccurateRip database
Copy OK
Track 10
Filename D:\lossless\Моя свобода\10 Маврин - Утоли мои печали.wav
Peak level 100.0 %
Track quality 100.0 %
Test CRC 60BCB0D4
Copy CRC 60BCB0D4
Track not present in AccurateRip database
Copy OK
None of the tracks are present in the AccurateRip database
No errors occurred
End of status report
Скачать

Скачать бесплатно и на максимальной скорости!

Как скачивать? · Что такое торрент? · Рейтинг и ограничения


_________________


Последний раз редактировалось: marving71 (2010-12-28 15:02), всего редактировалось 3 раз(а)
[Профиль]  [ЛС] 

marving71 ®

Стаж: 8 лет 9 месяцев

Сообщений: 115

Пост 26-Дек-2010 19:53 (спустя 2 часа 2 минуты)

[Цитировать] 

сам зыбыл проверить ab

_________________
[Профиль]  [ЛС] 

NIKOS

Стаж: 10 лет

Сообщений: 11

Пост 26-Дек-2010 22:52 (спустя 2 часа 58 минут)

[Цитировать] 

хорошая работа, первая понравившаяся со времен "ЗР"
[Профиль]  [ЛС] 
Показать сообщения:    
Ответить на тему

Текущее время: Сегодня 15:49

Часовой пояс: GMT + 3



Вы не можете начинать темы
Вы не можете отвечать на сообщения
Вы не можете редактировать свои сообщения
Вы не можете удалять свои сообщения
Вы не можете голосовать в опросах
Вы не можете прикреплять файлы к сообщениям
Вы не можете скачивать файлы