(Alternative Rock) Hypnogaja - Truth Decay - 2009, FLAC (tracks+.cue), lossless

Ответить на тему
 
Автор Сообщение

Three7 ®

Стаж: 10 лет

Сообщений: 464

Откуда: Тула

Пост 11-Май-2010 19:40

[Цитировать] 

Hypnogaja - Truth Decay
Страна: USA
Жанр: Alternative Rock
Год выпуска: 2009
Формат: FLAC (tracks+.cue)
Битрейт аудио: lossless
Продолжительность: 00:56:17
Трэклист:
01. "Dark Star" (4:37)
02. "The March" (3:54)
03. "Apocalyptic Love Song" (4:52)
04. "Worship Me (I'm On TV)" (3:27)
05. "Welcome To The Future" (4:04)
06. "Things Will Never Be The Same" (4:07)
07. "Kill The Humans" (4:00)
08. "Static" (4:01)
09. "Lucy" (4:18)
10. "Never Coming Back" (3:57)
11. "Last Man On Earth" (4:47)
12. "Rusty Moon" (4:25)
13. "Dark Star: End Transmission" (1:15)
14. "Cellar Door" (4:16)

EAC


Exact Audio Copy V0.99 prebeta 4 from 23. January 2008
EAC extraction logfile from 11. July 2009, 10:09
Hypnogaja / Truth Decay
Used drive : HL-DT-STDVD-RAM GSA-E60L Adapter: 2 ID: 0
Read mode : Secure
Utilize accurate stream : Yes
Defeat audio cache : Yes
Make use of C2 pointers : No
Read offset correction : 102
Overread into Lead-In and Lead-Out : No
Fill up missing offset samples with silence : Yes
Delete leading and trailing silent blocks : No
Null samples used in CRC calculations : Yes
Used interface : Native Win32 interface for Win NT & 2000
Gap handling : Appended to previous track
Used output format : User Defined Encoder
Selected bitrate : 128 kBit/s
Quality : High
Add ID3 tag : No
Command line compressor : C:\Program Files\Exact Audio Copy\Flac\flac.exe
Additional command line options : -V -8 -T "artist=%a" -T "title=%t" -T "album=%g" -T "date=%y" -T "tracknumber=%n" -T "genre=%m" %s
TOC of the extracted CD
Track | Start | Length | Start sector | End sector
---------------------------------------------------------
1 | 0:00.00 | 4:37.52 | 0 | 20826
2 | 4:37.52 | 3:54.71 | 20827 | 38447
3 | 8:32.48 | 4:52.51 | 38448 | 60398
4 | 13:25.24 | 3:27.43 | 60399 | 75966
5 | 16:52.67 | 4:04.31 | 75967 | 94297
6 | 20:57.23 | 4:07.37 | 94298 | 112859
7 | 25:04.60 | 4:00.00 | 112860 | 130859
8 | 29:04.60 | 4:01.54 | 130860 | 148988
9 | 33:06.39 | 4:18.70 | 148989 | 168408
10 | 37:25.34 | 3:57.27 | 168409 | 186210
11 | 41:22.61 | 4:47.51 | 186211 | 207786
12 | 46:10.37 | 4:30.31 | 207787 | 228067
13 | 50:40.68 | 1:20.33 | 228068 | 234100
14 | 52:01.26 | 4:16.33 | 234101 | 253333
Track 1
Filename D:\FlacRip\Hypnogaja - Truth Decay\01 - Dark Star.wav
Pre-gap length 0:00:02.00
Peak level 99.9 %
Track quality 100.0 %
Test CRC 9C945E53
Copy CRC 9C945E53
Track not present in AccurateRip database
Copy OK
Track 2
Filename D:\FlacRip\Hypnogaja - Truth Decay\02 - The March.wav
Peak level 99.9 %
Track quality 100.0 %
Test CRC B0D9C5D8
Copy CRC B0D9C5D8
Track not present in AccurateRip database
Copy OK
Track 3
Filename D:\FlacRip\Hypnogaja - Truth Decay\03 - Apocalyptic Love Song.wav
Peak level 99.9 %
Track quality 100.0 %
Test CRC EED11EE8
Copy CRC EED11EE8
Track not present in AccurateRip database
Copy OK
Track 4
Filename D:\FlacRip\Hypnogaja - Truth Decay\04 - Worship Me (I'm On TV).wav
Peak level 99.9 %
Track quality 100.0 %
Test CRC 7B791409
Copy CRC 7B791409
Track not present in AccurateRip database
Copy OK
Track 5
Filename D:\FlacRip\Hypnogaja - Truth Decay\05 - Welcome To The Future.wav
Peak level 99.9 %
Track quality 99.9 %
Test CRC F1838FEE
Copy CRC F1838FEE
Track not present in AccurateRip database
Copy OK
Track 6
Filename D:\FlacRip\Hypnogaja - Truth Decay\06 - Things Will Never Be The Same.wav
Peak level 99.9 %
Track quality 100.0 %
Test CRC 3B8D46F0
Copy CRC 3B8D46F0
Track not present in AccurateRip database
Copy OK
Track 7
Filename D:\FlacRip\Hypnogaja - Truth Decay\07 - Kill The Humans.wav
Peak level 99.9 %
Track quality 100.0 %
Test CRC 24C79FEA
Copy CRC 24C79FEA
Track not present in AccurateRip database
Copy OK
Track 8
Filename D:\FlacRip\Hypnogaja - Truth Decay\08 - Static.wav
Peak level 99.9 %
Track quality 99.9 %
Test CRC 4306985C
Copy CRC 4306985C
Track not present in AccurateRip database
Copy OK
Track 9
Filename D:\FlacRip\Hypnogaja - Truth Decay\09 - Lucy.wav
Peak level 99.9 %
Track quality 100.0 %
Test CRC 234CC6DA
Copy CRC 234CC6DA
Track not present in AccurateRip database
Copy OK
Track 10
Filename D:\FlacRip\Hypnogaja - Truth Decay\10 - Never Coming Back.wav
Peak level 99.9 %
Track quality 100.0 %
Test CRC 8EEE8352
Copy CRC 8EEE8352
Track not present in AccurateRip database
Copy OK
Track 11
Filename D:\FlacRip\Hypnogaja - Truth Decay\11 - Last Man On Earth.wav
Peak level 99.9 %
Track quality 100.0 %
Test CRC 23ECAB9B
Copy CRC 23ECAB9B
Track not present in AccurateRip database
Copy OK
Track 12
Filename D:\FlacRip\Hypnogaja - Truth Decay\12 - Rusty Moon.wav
Peak level 99.9 %
Track quality 100.0 %
Test CRC 6FBDECDC
Copy CRC 6FBDECDC
Track not present in AccurateRip database
Copy OK
Track 13
Filename D:\FlacRip\Hypnogaja - Truth Decay\13 - Dark Star- End Transmission.wav
Peak level 99.9 %
Track quality 100.0 %
Test CRC 3218936A
Copy CRC 3218936A
Track not present in AccurateRip database
Copy OK
Track 14
Filename D:\FlacRip\Hypnogaja - Truth Decay\14 - Cellar Door.wav
Peak level 99.9 %
Track quality 100.0 %
Test CRC 7529B1E9
Copy CRC 7529B1E9
Track not present in AccurateRip database
Copy OK
None of the tracks are present in the AccurateRip database
No errors occurred
End of status report
Скачать

Скачать бесплатно и на максимальной скорости!

Как скачивать? · Что такое торрент? · Рейтинг и ограничения

[Профиль]  [ЛС] 

Jerk

Стаж: 10 лет

Сообщений: 9

Пост 08-Июн-2010 09:29 (спустя 27 дней)

[Цитировать] 

спасибо

_________________
Rock and Alternative !!!
[Профиль]  [ЛС] 
Показать сообщения:    
Ответить на тему

Текущее время: Сегодня 11:43

Часовой пояс: GMT + 3



Вы не можете начинать темы
Вы не можете отвечать на сообщения
Вы не можете редактировать свои сообщения
Вы не можете удалять свои сообщения
Вы не можете голосовать в опросах
Вы не можете прикреплять файлы к сообщениям
Вы не можете скачивать файлы