Плэйбой ТВ - Вчетвером (Сезон 2) / PLAYBOY TV - Foursome (Season 2) (PLAYBOY TV) [2009 г., Adult/Reality, SATRip]

Ответить на тему
 
Автор Сообщение

Ruzel ®

Стаж: 7 лет 2 месяца

Сообщений: 1894

Откуда: Московская обл

Пост 26-Окт-2011 13:23

[Цитировать] 

-Плэйбой ТВ - Вчетвером (Сезон 2)/ PLAYBOY TV - Foursome (Season 2)- Год выпуска: 2009
Страна: USA
Жанр: Adult/Reality
Продолжительность: 12x ~26 min
Перевод: Отсутствует
Режиссер: PLAYBOY TV
В ролях: Различные молодые люди.
Описание:
2 пары, 24 часа, куча возможностей и не каких запретов.
Качество: SATRip
Формат: AVI
Видео кодек: XviD
Аудио кодек: MP3
Видео: Xvid 872x480 24.00fps
Аудио: MPEG Audio Layer 3 44100Hz stereo 128kbps

Отчёт DVDInfo / MediaInfo / BDInfo на примере первой серии

General
Format : AVI
Format/Info : Audio Video Interleave
File size : 488 MiB
Duration : 26mn 1s
Overall bit rate : 2 623 Kbps
Writing application : MEncoder SVN-r30881(20100311-gcc4.3.3)
Writing library : MPlayer
Video
ID : 0
Format : MPEG-4 Visual
Format profile : Advanced [email protected]
Format settings, BVOP : 2
Format settings, QPel : No
Format settings, GMC : No warppoints
Format settings, Matrix : Default (H.263)
Codec ID : XVID
Codec ID/Hint : XviD
Duration : 26mn 1s
Bit rate : 2 483 Kbps
Width : 872 pixels
Height : 480 pixels
Display aspect ratio : 16:9
Frame rate : 24.000 fps
Color space : YUV
Chroma subsampling : 4:2:0
Bit depth : 8 bits
Scan type : Progressive
Compression mode : Lossy
Bits/(Pixel*Frame) : 0.247
Stream size : 462 MiB (95%)
Writing library : XviD 1.2.1 (UTC 2008-12-04)
Audio
ID : 1
Format : MPEG Audio
Format version : Version 1
Format profile : Layer 3
Mode : Joint stereo
Mode extension : MS Stereo
Codec ID : 55
Codec ID/Hint : MP3
Duration : 26mn 1s
Bit rate mode : Constant
Bit rate : 128 Kbps
Channel(s) : 2 channels
Sampling rate : 44.1 KHz
Compression mode : Lossy
Delay relative to video : 42ms
Stream size : 23.8 MiB (5%)
Alignment : Aligned on interleaves
Interleave, duration : 26 ms (0.63 video frame)
Interleave, preload duration : 522 ms
Writing library : LAME3.98

Скрины

Скринлисты

EP 01

EP 02

EP 03

EP 04

EP 05

EP 06

EP 07

EP 08

EP 09

EP 10

EP 11

EP 12

Скачать

Скачать бесплатно и на максимальной скорости!

Как скачивать? · Что такое торрент? · Рейтинг и ограничения



Последний раз редактировалось: Ruzel (2013-04-10 12:11), всего редактировалось 1 раз
[Профиль]  [ЛС] 

ramovsky2

Стаж: 4 года 7 месяцев

Сообщений: 1

Пост 22-Апр-2012 14:01 (спустя 5 месяцев 27 дней)

[Цитировать] 

Отличная штука для пар...
[Профиль]  [ЛС] 

Alexey71

Стаж: 8 лет 2 месяца

Сообщений: 195

Откуда: Донской

Пост 10-Апр-2013 16:08 (спустя 11 месяцев 18 дней)

[Цитировать] 

для пары рук
[Профиль]  [ЛС] 
Показать сообщения:    
Ответить на тему

Текущее время: Сегодня 00:42

Часовой пояс: GMT + 3



Вы не можете начинать темы
Вы не можете отвечать на сообщения
Вы не можете редактировать свои сообщения
Вы не можете удалять свои сообщения
Вы не можете голосовать в опросах
Вы не можете прикреплять файлы к сообщениям
Вы не можете скачивать файлы