Moscow Unlim 500+ (Сентябрь 2010) 720p / Moscow Unlim 500+ 09/2010 720p [2011 г., автоспорт]

Ответить на тему
 
Автор Сообщение

ZLOY ®

Стаж: 9 лет

Сообщений: 15

Пост 15-Апр-2013 18:27

[Цитировать] 

Moscow Unlim 500+ (Сентябрь 2010) 720p / Moscow Unlim 500+ 09/2010 720p
Страна: Россия
Жанр: автоспорт
Дата выпуска: 16.04.2011
Продолжительность: 47 минут 17 сек
Перевод: Не требуется
Субтитры: анлийские
Описание: MOSCOW UNLIM II 500+
Вид спорта: Автогонки
Участники: Автомобили 500+ л.с.
Язык комментариев: Русский
Описание:
www.dragtimes.info
Формат заездов:
Парные заезды с фиксацией скорости и времени прохождения дистанции 1/4 и 1 мили с измерением времени прохождения 60 футов.
После старта 2-х машин на финише фиксируются:
- 6 результатов времени;
- 4 результата скорости.
Старт = > 60 футов (время) = > 1/4 мили (время + скорость) = > 1 миля (время + скорость) = > остановка.
Используемое оборудование:
На дистанции будет установлена профессиональная система телеметрии Race America с фиксацией времени прохождения и скорости 1/4 и 1 мили, а так же временем прохождения 60 футов.
Участники попарно соревнуются, сразу в двух дисциплинах – 1/4 и 1 миля.
По итогам свободных заездов выбираются 16 лучших результатов в этих дисциплинах, на основании которых будут сформированы две “сетки” заездов.
ВАЖНО: КАТЕГОРИЧЕСКИ ЗАПРЕЩЕНО ПРОДОЛЖАТЬ УСКОРЕНИЕ ПОСЛЕ ПЕРЕСЕЧЕНИЯ ОТМЕТКИ 1 МИЛИ – ЭТО МОЖЕТ ПОДВЕРГНУТЬ ОПАСНОСТИ ДРУГИХ УЧАСТНИКОВ, А ТАК ЖЕ ПЕРСОНАЛ, ОБСЛУЖИВАЮЩИЙ МЕРОПРИЯТИЕ.
Зрительская зона:
Зрительская зона представляет из себя большой шатер, из которого будет прямой визуальный обзор на стартовую прямую. Гостям и участникам будут предложены еда, напитки и кальяны.
Используемое оборудование:
На участке 402 метров и 1 мили установлена профессиональная система телеметрии Race America с фиксацией времени прохождения участка и скорости на выходе;
Для удобства зрителей и участников, в зоне финиша – 1 миля, а так же на отметке 402 метров будут установлены видеокамеры, передающие видеоданные в реальном времени.
Качество видео: HDTV
Формат видео: MP4
Видео: 720 HD
Аудио: 223kbps

Подробные технические данные

D:\Moscow Unlim 500 (September 2010) - Subtitles.mp4
General
Complete name : D:\Moscow Unlim 500 (September 2010) - Subtitles.mp4
Format : MPEG-4
Format profile : Base Media / Version 2
Codec ID : mp42
File size : 759 MiB
Duration : 47mn 17s
Overall bit rate : 2 244 Kbps
Encoded date : UTC 2011-04-14 21:28:18
Tagged date : UTC 2011-04-14 21:28:18
gsst : 0
gstd : 2837760
gssd : B4A7D0F84MH1302970507831080
gshh : v14.lscache5.c.youtube.com
Video #1
ID : 1
Format : AVC
Format/Info : Advanced Video Codec
Format profile : [email protected]
Format settings, CABAC : Yes
Format settings, ReFrames : 1 frame
Codec ID : avc1
Codec ID/Info : Advanced Video Coding
Duration : 47mn 17s
Bit rate mode : Variable
Bit rate : 2 088 Kbps
Maximum bit rate : 5 827 Kbps
Width : 1 280 pixels
Height : 720 pixels
Display aspect ratio : 16:9
Frame rate mode : Constant
Frame rate : 25.000 fps
Resolution : 24 bits
Colorimetry : 4:2:0
Scan type : Progressive
Bits/(Pixel*Frame) : 0.091
Stream size : 706 MiB (93%)
Tagged date : UTC 2011-04-14 21:28:32
Audio #2
ID : 2
Format : AAC
Format/Info : Advanced Audio Codec
Format version : Version 4
Format profile : LC
Format settings, SBR : No
Codec ID : 40
Duration : 47mn 17s
Bit rate mode : Variable
Bit rate : 152 Kbps
Maximum bit rate : 223 Kbps
Channel(s) : 2 channels
Channel positions : L R
Sampling rate : 44.1 KHz
Resolution : 16 bits
Stream size : 51.3 MiB (7%)
Title : (C) 2007 Google Inc. v08.13.2007.
Encoded date : UTC 2011-04-14 21:28:25
Tagged date : UTC 2011-04-14 21:28:32

Скриншоты


Скачать

Скачать бесплатно и на максимальной скорости!

Как скачивать? · Что такое торрент? · Рейтинг и ограничения


_________________
[Профиль]  [ЛС] 
Показать сообщения:    
Ответить на тему

Текущее время: Сегодня 06:10

Часовой пояс: GMT + 3



Вы не можете начинать темы
Вы не можете отвечать на сообщения
Вы не можете редактировать свои сообщения
Вы не можете удалять свои сообщения
Вы не можете голосовать в опросах
Вы не можете прикреплять файлы к сообщениям
Вы не можете скачивать файлы