(Blues / Rock / Soul) Hugh Laurie - Let Them Talk (Limited Edition) - 2011, FLAC (tracks + .cue), lossless

Ответить на тему
 
Автор Сообщение

Three7 ®

Пол: Мужской

Стаж: 12 года

Сообщений: 423

Откуда: Тула

Создавать темы 24-Май-2011 15:43

[Цитировать]

Hugh Laurie - Let Them Talk (Limited Edition)- Страна: UK
Жанр: Blues / Rock / Soul
Год выпуска: 2011
Формат: FLAC (tracks + .cue)
Битрейт аудио: lossless
Продолжительность: 01:09:10
         
Трэклист:
01. St. James Infirmary
02. You Don't Know My Mind
03. Six Cold Feet
04. Buddy Bolden's Blues
05. Battle Of Jericho
06. After You've Gone
07. Swanee River (2:43)
08. The Whale Has Swallowed Me
09. John Henry
10. Police Dog Blues
11. Tipitina
12. Winin' Boy Blues
13. They're Red Hot
14. Baby, Please Make A Change
15. Let Them Talk
16. Guess I'm A Fool (Bonus Track)
17. It Ain't Necessarily So (Bonus Track)
18. Lowdown, Worried And Blue (Bonus Track)

Лог создания рипа

Exact Audio Copy V1.0 beta 1 from 15. November 2010
EAC extraction logfile from 11. May 2011, 0:30
Hugh Laurie / Let Them Talk: Photobook
Used drive  : PIONEER BD-ROM  BDC-TD03   Adapter: 0  ID: 1
Read mode               : Secure
Utilize accurate stream : Yes
Defeat audio cache      : Yes
Make use of C2 pointers : No
Read offset correction                      : 667
Overread into Lead-In and Lead-Out          : Yes
Fill up missing offset samples with silence : Yes
Delete leading and trailing silent blocks   : No
Null samples used in CRC calculations       : Yes
Used interface                              : Native Win32 interface for Win NT & 2000
Gap handling                                : Appended to previous track
Used output format              : User Defined Encoder
Selected bitrate                : 1024 kBit/s
Quality                         : High
Add ID3 tag                     : No
Command line compressor         : C:\Program Files (x86)\Exact Audio Copy\Flac\flac.exe
Additional command line options : -V -8 -T "artist=%a" -T "title=%t" -T "album=%g" -T "date=%y" -T "tracknumber=%n" -T "genre=%m" %s
TOC of the extracted CD
     Track |   Start  |  Length  | Start sector | End sector
    ---------------------------------------------------------
        1  |  0:00.00 |  6:23.10 |         0    |    28734
        2  |  6:23.10 |  3:39.10 |     28735    |    45169
        3  | 10:02.20 |  4:55.17 |     45170    |    67311
        4  | 14:57.37 |  3:12.60 |     67312    |    81771
        5  | 18:10.22 |  3:47.45 |     81772    |    98841
        6  | 21:57.67 |  4:09.11 |     98842    |   117527
        7  | 26:07.03 |  2:43.06 |    117528    |   129758
        8  | 28:50.09 |  3:37.04 |    129759    |   146037
        9  | 32:27.13 |  3:34.36 |    146038    |   162123
       10  | 36:01.49 |  3:33.01 |    162124    |   178099
       11  | 39:34.50 |  5:06.71 |    178100    |   201120
       12  | 44:41.46 |  2:59.66 |    201121    |   214611
       13  | 47:41.37 |  1:11.74 |    214612    |   220010
       14  | 48:53.36 |  4:57.59 |    220011    |   242344
       15  | 53:51.20 |  4:11.28 |    242345    |   261197
       16  | 58:02.48 |  3:08.64 |    261198    |   275361
       17  | 61:11.37 |  3:45.52 |    275362    |   292288
       18  | 64:57.14 |  4:13.42 |    292289    |   311305
Track  1
     Filename C:\rips\Hugh Laurie - 2011 - Let Them Talk- Photobook\01 - St. James Infirmary.wav
     Pre-gap length  0:00:02.00
     Peak level 98.8 %
     Extraction speed 3.2 X
     Track quality 100.0 %
     Test CRC D9458BEF
     Copy CRC D9458BEF
     Track not present in AccurateRip database
     Copy OK
Track  2
     Filename C:\rips\Hugh Laurie - 2011 - Let Them Talk- Photobook\02 - You Don't Know My Mind.wav
     Peak level 97.7 %
     Extraction speed 2.9 X
     Track quality 99.9 %
     Test CRC 219242B7
     Copy CRC 219242B7
     Track not present in AccurateRip database
     Copy OK
Track  3
     Filename C:\rips\Hugh Laurie - 2011 - Let Them Talk- Photobook\03 - Six Cold Feet.wav
     Peak level 97.7 %
     Extraction speed 3.7 X
     Track quality 100.0 %
     Test CRC 1C40C160
     Copy CRC 1C40C160
     Track not present in AccurateRip database
     Copy OK
Track  4
     Filename C:\rips\Hugh Laurie - 2011 - Let Them Talk- Photobook\04 - Buddy Bolden's Blues.wav
     Peak level 97.7 %
     Extraction speed 3.7 X
     Track quality 100.0 %
     Test CRC B02E2A36
     Copy CRC B02E2A36
     Track not present in AccurateRip database
     Copy OK
Track  5
     Filename C:\rips\Hugh Laurie - 2011 - Let Them Talk- Photobook\05 - Battle of Jericho.wav
     Peak level 97.7 %
     Extraction speed 4.0 X
     Track quality 100.0 %
     Test CRC 52286415
     Copy CRC 52286415
     Track not present in AccurateRip database
     Copy OK
Track  6
     Filename C:\rips\Hugh Laurie - 2011 - Let Them Talk- Photobook\06 - After You've Gone.wav
     Peak level 97.7 %
     Extraction speed 4.2 X
     Track quality 100.0 %
     Test CRC 9B5594E8
     Copy CRC 9B5594E8
     Track not present in AccurateRip database
     Copy OK
Track  7
     Filename C:\rips\Hugh Laurie - 2011 - Let Them Talk- Photobook\07 - Swanee River.wav
     Peak level 97.7 %
     Extraction speed 4.1 X
     Track quality 100.0 %
     Test CRC ED67EDA8
     Copy CRC ED67EDA8
     Track not present in AccurateRip database
     Copy OK
Track  8
     Filename C:\rips\Hugh Laurie - 2011 - Let Them Talk- Photobook\08 - The Whale Has Swallowed Me.wav
     Peak level 97.7 %
     Extraction speed 4.4 X
     Track quality 100.0 %
     Test CRC 36332E95
     Copy CRC 36332E95
     Track not present in AccurateRip database
     Copy OK
Track  9
     Filename C:\rips\Hugh Laurie - 2011 - Let Them Talk- Photobook\09 - John Henry.wav
     Peak level 97.7 %
     Extraction speed 4.5 X
     Track quality 100.0 %
     Test CRC FA667341
     Copy CRC FA667341
     Track not present in AccurateRip database
     Copy OK
Track 10
     Filename C:\rips\Hugh Laurie - 2011 - Let Them Talk- Photobook\10 - Police Dog Blues.wav
     Peak level 94.4 %
     Extraction speed 4.7 X
     Track quality 100.0 %
     Test CRC 8AA1C29C
     Copy CRC 8AA1C29C
     Track not present in AccurateRip database
     Copy OK
Track 11
     Filename C:\rips\Hugh Laurie - 2011 - Let Them Talk- Photobook\11 - Tipitina.wav
     Peak level 97.7 %
     Extraction speed 5.1 X
     Track quality 100.0 %
     Test CRC 3D664778
     Copy CRC 3D664778
     Track not present in AccurateRip database
     Copy OK
Track 12
     Filename C:\rips\Hugh Laurie - 2011 - Let Them Talk- Photobook\12 - Winin' Boy Blues.wav
     Peak level 97.7 %
     Extraction speed 4.8 X
     Track quality 100.0 %
     Test CRC B87811DB
     Copy CRC B87811DB
     Track not present in AccurateRip database
     Copy OK
Track 13
     Filename C:\rips\Hugh Laurie - 2011 - Let Them Talk- Photobook\13 - They're Red Hot.wav
     Peak level 97.7 %
     Extraction speed 3.8 X
     Track quality 100.0 %
     Test CRC C4D57338
     Copy CRC C4D57338
     Track not present in AccurateRip database
     Copy OK
Track 14
     Filename C:\rips\Hugh Laurie - 2011 - Let Them Talk- Photobook\14 - Baby, Please Make a Change.wav
     Peak level 97.7 %
     Extraction speed 5.4 X
     Track quality 100.0 %
     Test CRC 727CE253
     Copy CRC 727CE253
     Track not present in AccurateRip database
     Copy OK
Track 15
     Filename C:\rips\Hugh Laurie - 2011 - Let Them Talk- Photobook\15 - Let Them Talk.wav
     Peak level 97.7 %
     Extraction speed 4.8 X
     Track quality 99.9 %
     Test CRC 476B6091
     Copy CRC 476B6091
     Track not present in AccurateRip database
     Copy OK
Track 16
     Filename C:\rips\Hugh Laurie - 2011 - Let Them Talk- Photobook\16 - Guess I'm a Fool.wav
     Peak level 97.7 %
     Extraction speed 5.3 X
     Track quality 100.0 %
     Test CRC 39ED8D94
     Copy CRC 39ED8D94
     Track not present in AccurateRip database
     Copy OK
Track 17
     Filename C:\rips\Hugh Laurie - 2011 - Let Them Talk- Photobook\17 - It Ain't Necessarily So.wav
     Peak level 97.7 %
     Extraction speed 5.6 X
     Track quality 100.0 %
     Test CRC 225E1685
     Copy CRC 225E1685
     Track not present in AccurateRip database
     Copy OK
Track 18
     Filename C:\rips\Hugh Laurie - 2011 - Let Them Talk- Photobook\18 - Lowdown, Worried and Blue.wav
     Peak level 98.8 %
     Extraction speed 6.4 X
     Track quality 100.0 %
     Test CRC F3E111D4
     Copy CRC F3E111D4
     Track not present in AccurateRip database
     Copy OK
None of the tracks are present in the AccurateRip database
No errors occurred
End of status report
==== Log checksum 93C37575D71CBA558AD93DAB311E93EF981474D3C21A84981EE9237654550E7D ====

Содержание индексной карты (.cue)

REM GENRE Blues
REM DATE 2011
REM DISCID 2F103612
REM COMMENT "ExactAudioCopy v1.0b1"
PERFORMER "Hugh Laurie"
TITLE "Let Them Talk: Photobook"
FILE "Hugh Laurie - 2011 - Let Them Talk- Photobook\01 - St. James Infirmary.wav" WAVE
  TRACK 01 AUDIO
    TITLE "St. James Infirmary"
    PERFORMER "Hugh Laurie"
    ISRC GBAHT1100010
    INDEX 01 00:00:00
FILE "Hugh Laurie - 2011 - Let Them Talk- Photobook\02 - You Don't Know My Mind.wav" WAVE
  TRACK 02 AUDIO
    TITLE "You Don't Know My Mind"
    PERFORMER "Hugh Laurie"
    ISRC GBAHT1100011
    INDEX 01 00:00:00
FILE "Hugh Laurie - 2011 - Let Them Talk- Photobook\03 - Six Cold Feet.wav" WAVE
  TRACK 03 AUDIO
    TITLE "Six Cold Feet"
    PERFORMER "Hugh Laurie"
    ISRC GBAHT1100016
    INDEX 01 00:00:00
FILE "Hugh Laurie - 2011 - Let Them Talk- Photobook\04 - Buddy Bolden's Blues.wav" WAVE
  TRACK 04 AUDIO
    TITLE "Buddy Bolden's Blues"
    PERFORMER "Hugh Laurie"
    ISRC GBAHT1100012
    INDEX 01 00:00:00
FILE "Hugh Laurie - 2011 - Let Them Talk- Photobook\05 - Battle of Jericho.wav" WAVE
  TRACK 05 AUDIO
    TITLE "Battle of Jericho"
    PERFORMER "Hugh Laurie"
    ISRC GBAHT1100017
    INDEX 01 00:00:00
FILE "Hugh Laurie - 2011 - Let Them Talk- Photobook\06 - After You've Gone.wav" WAVE
  TRACK 06 AUDIO
    TITLE "After You've Gone"
    PERFORMER "Hugh Laurie"
    ISRC GBAHT1100018
    INDEX 01 00:00:00
FILE "Hugh Laurie - 2011 - Let Them Talk- Photobook\07 - Swanee River.wav" WAVE
  TRACK 07 AUDIO
    TITLE "Swanee River"
    PERFORMER "Hugh Laurie"
    ISRC GBAHT1100019
    INDEX 01 00:00:00
FILE "Hugh Laurie - 2011 - Let Them Talk- Photobook\08 - The Whale Has Swallowed Me.wav" WAVE
  TRACK 08 AUDIO
    TITLE "The Whale Has Swallowed Me"
    PERFORMER "Hugh Laurie"
    ISRC GBAHT1100013
    INDEX 01 00:00:00
FILE "Hugh Laurie - 2011 - Let Them Talk- Photobook\09 - John Henry.wav" WAVE
  TRACK 09 AUDIO
    TITLE "John Henry"
    PERFORMER "Hugh Laurie"
    ISRC GBAHT1100014
    INDEX 01 00:00:00
FILE "Hugh Laurie - 2011 - Let Them Talk- Photobook\10 - Police Dog Blues.wav" WAVE
  TRACK 10 AUDIO
    TITLE "Police Dog Blues"
    PERFORMER "Hugh Laurie"
    ISRC GBAHT1100020
    INDEX 01 00:00:00
FILE "Hugh Laurie - 2011 - Let Them Talk- Photobook\11 - Tipitina.wav" WAVE
  TRACK 11 AUDIO
    TITLE "Tipitina"
    PERFORMER "Hugh Laurie"
    ISRC GBAHT1100021
    INDEX 01 00:00:00
FILE "Hugh Laurie - 2011 - Let Them Talk- Photobook\12 - Winin' Boy Blues.wav" WAVE
  TRACK 12 AUDIO
    TITLE "Winin' Boy Blues"
    PERFORMER "Hugh Laurie"
    ISRC GBAHT1100022
    INDEX 01 00:00:00
FILE "Hugh Laurie - 2011 - Let Them Talk- Photobook\13 - They're Red Hot.wav" WAVE
  TRACK 13 AUDIO
    TITLE "They're Red Hot"
    PERFORMER "Hugh Laurie"
    ISRC GBAHT1100015
    INDEX 01 00:00:00
FILE "Hugh Laurie - 2011 - Let Them Talk- Photobook\14 - Baby, Please Make a Change.wav" WAVE
  TRACK 14 AUDIO
    TITLE "Baby, Please Make a Change"
    PERFORMER "Hugh Laurie"
    ISRC GBAHT1100023
    INDEX 01 00:00:00
FILE "Hugh Laurie - 2011 - Let Them Talk- Photobook\15 - Let Them Talk.wav" WAVE
  TRACK 15 AUDIO
    TITLE "Let Them Talk"
    PERFORMER "Hugh Laurie"
    ISRC GBAHT1100024
    INDEX 01 00:00:00
FILE "Hugh Laurie - 2011 - Let Them Talk- Photobook\16 - Guess I'm a Fool.wav" WAVE
  TRACK 16 AUDIO
    TITLE "Guess I'm a Fool"
    PERFORMER "Hugh Laurie"
    ISRC GBAHT1100037
    INDEX 01 00:00:00
FILE "Hugh Laurie - 2011 - Let Them Talk- Photobook\17 - It Ain't Necessarily So.wav" WAVE
  TRACK 17 AUDIO
    TITLE "It Ain't Necessarily So"
    PERFORMER "Hugh Laurie"
    ISRC GBAHT1100025
    INDEX 01 00:00:00
FILE "Hugh Laurie - 2011 - Let Them Talk- Photobook\18 - Lowdown, Worried and Blue.wav" WAVE
  TRACK 18 AUDIO
    TITLE "Lowdown, Worried and Blue"
    PERFORMER "Hugh Laurie"
    ISRC GBAHT1100036
    INDEX 01 00:00:00
[Профиль] [ЛС]
Показать сообщения:    
Ответить на тему

Текущее время: 16-Янв 16:51

Часовой пояс: UTC + 3



Вы не можете начинать темы
Вы не можете отвечать на сообщения
Вы не можете редактировать свои сообщения
Вы не можете удалять свои сообщения
Вы не можете голосовать в опросах
Вы не можете прикреплять файлы к сообщениям
Вы не можете скачивать файлы