Шевели ластами 2 3Д / Sammy's avonturen 2 3D (Бен Стассен / Ben Stassen) [2012 г., Мультфильм Приключения Семейный, BDRip-AVC] Half OverUnder / Вертикальная анаморфная стереопара

Ответить на тему
 
Автор Сообщение

Fill ®

Пол: Мужской

Стаж: 8 года 7 месяца

Сообщений: 26

Откуда: Отсюда

Создавать темы 15-Янв-2013 20:20

[Цитировать]

Шевели ластами 2 3Д / Sammy's avonturen 2 3D- Год выпуска: 2012
Страна: Бельгия ( BNP Paribas Fortis Film Fund, Illuminata Pictures )
Жанр: Мультфильм Приключения Семейный
Продолжительность: 01:32:50
Перевод: Русский дубляж / Английская аудиодорога-Режиссер: Бен Стассен / Ben Stassen-Роли озвучивали: Билли Ангер, Пэт Кэрролл, Карлос МакКаллерс II, Синда Адамс, Дино Андраде, Крис Эндрю, Кулла Изабель, Фурман Уэсли, Джонни Силье, Рейномо Дуглас, Райан Рот
Роли дублировали: Кирилл Туранский, Наталья Терешкова, Пётр Иващенко, Анна Денисова-Описание:
Верные друзья навсегда, черепахи Сэмми и Рей, наслаждаются размеренной жизнью вблизи океана, а также присматривают за только что вылупившимися Рикки и Эллой. Внезапно, браконьер хватает больших черепах, они нужны ему для захватывающего морского шоу в Дубае. Центральная фигура шоу, морской конёк Большой Ди, посвящает новичков в свои планы на грандиозный побег.
Но, когда маленькие Рикки и Элла прибывают, чтобы спасти «дедушек», планы черепах и их новых друзей: пучеглазой рыбки Джимбо, осьминога Анабель, омара и большой семьи пингвинов, меняются. После ряда волнующих приключений и побегов, наши герои направляются на юг, чтобы встретиться с Шелли, первой и единственной любовью Сэмми.
-Доп. информация: Сохранены оригинальные чаптеры как на Blu-ray. Рип от HDMaNiAcS-Качество: BDRip-AVC
Контейнер: MKV
Формат 3D: Half OverUnder / Вертикальная анаморфная стереопара
Порядок ракурсов: Левый ракурс первый
Видео кодек: x264
Аудио кодек: AC3
Видео: AVC / High@L4.1 / 2 pass / 23,976 fps / 1920x1080p / / 12,5 Mbps / 0.251
Аудио#1: AC3 / 5.1 ch / 448 kbps / Русский дубляж R5
Аудио#2: AC3 / 5.1 ch / 640 kbps / Английский BD-

Дополнительно о мультфильме

-

Производство, студия дубляжа, прокат

-

Немного рецензий с Кинопоиска.Ру

-

Info Log x264

x264 [info]: frame I:1490 Avg QP:15.91 size:304117
x264 [info]: frame P:34163 Avg QP:17.73 size:121883
x264 [info]: frame B:125830 Avg QP:18.85 size: 65534
-

MediaInfo

Общее
Уникальный идентификатор : 218925871588522898345556416047986830042 (0xA4B396D3CD4BD955A877D8D70498EADA)
Формат : Matroska
Версия формата : Version 4 / Version 2
Размер файла : 8,79 Гбайт
Продолжительность : 1 ч. 32 м.
Общий поток : 13,6 Мбит/сек
Название фильма : Sammy's Adventures 2 3D (2012) by HDMaNiAcS
Дата кодирования : UTC 2010-02-22 21:41:31
Программа кодирования : mkvmerge v5.9.0 ('On The Loose') built on Dec 9 2012 15:37:01
Библиотека кодирования : libebml v1.3.0 + libmatroska v1.4.0
Видео
Идентификатор : 1
Формат : AVC
Формат/Информация : Advanced Video Codec
Профиль формата : High@L4.1
Параметр CABAC формата : Да
Параметр ReFrames формата : 4 кадра
Идентификатор кодека : V_MPEG4/ISO/AVC
Продолжительность : 1 ч. 32 м.
Битрейт : 12,5 Мбит/сек
Ширина : 1920 пикселей
Высота : 1080 пикселей
Соотношение сторон : 16:9
Режим частоты кадров : Постоянный
Частота кадров : 23,976 кадра/сек
Цветовое пространство : YUV
Субдискретизация насыщенности : 4:2:0
Битовая глубина : 8 бит
Тип развёртки : Прогрессивная
Бит/(Пиксели*Кадры) : 0.251
Размер потока : 7,91 Гбайт (90%)
Заголовок : Sammy's Adventures 2 3D (2012)
Библиотека кодирования : x264 core 128 r2216 198a7ea
Настройки программы : cabac=1 / ref=4 / deblock=1:-3:-3 / analyse=0x3:0x113 / me=tesa / subme=11 / psy=1 / psy_rd=0.80:0.00 / mixed_ref=1 / me_range=40 / chroma_me=1 / trellis=2 / 8x8dct=1 / cqm=0 / deadzone=21,11 / fast_pskip=0 / chroma_qp_offset=-2 / threads=12 / lookahead_threads=2 / sliced_threads=0 / nr=0 / decimate=0 / interlaced=0 / bluray_compat=0 / constrained_intra=0 / bframes=7 / b_pyramid=2 / b_adapt=2 / b_bias=0 / direct=3 / weightb=1 / open_gop=0 / weightp=2 / keyint=250 / keyint_min=23 / scenecut=40 / intra_refresh=0 / rc=2pass / mbtree=0 / bitrate=12500 / ratetol=1.0 / qcomp=0.65 / qpmin=0 / qpmax=69 / qpstep=4 / cplxblur=20.0 / qblur=0.5 / ip_ratio=1.40 / pb_ratio=1.25 / aq=1:0.70
Язык : English
Default : Да
Forced : Нет
Аудио #1
Идентификатор : 2
Формат : AC-3
Формат/Информация : Audio Coding 3
Расширение режима : CM (complete main)
Параметр Endianness формата : Big
Идентификатор кодека : A_AC3
Продолжительность : 1 ч. 32 м.
Вид битрейта : Постоянный
Битрейт : 448 Кбит/сек
Каналы : 6 каналов
Расположение каналов : Front: L C R, Side: L R, LFE
Частота : 48,0 КГц
Битовая глубина : 16 бит
Метод сжатия : С потерями
Размер потока : 298 Мбайт (3%)
Заголовок : AC3 / 5.1 ch / 448 kbps / Русский дубляж R5
Язык : Russian
Default : Да
Forced : Нет
Аудио #2
Идентификатор : 3
Формат : AC-3
Формат/Информация : Audio Coding 3
Расширение режима : CM (complete main)
Параметр Endianness формата : Big
Идентификатор кодека : A_AC3
Продолжительность : 1 ч. 32 м.
Вид битрейта : Постоянный
Битрейт : 640 Кбит/сек
Каналы : 6 каналов
Расположение каналов : Front: L C R, Side: L R, LFE
Частота : 48,0 КГц
Битовая глубина : 16 бит
Метод сжатия : С потерями
Размер потока : 425 Мбайт (5%)
Заголовок : AC3 / 5.1 ch / 640 kbps / Английский BD
Язык : English
Default : Нет
Forced : Нет
Меню
00:00:00.000 : en:00:00:00.000
00:12:09.854 : en:00:12:09.854
00:21:48.224 : en:00:21:48.224
00:34:51.548 : en:00:34:51.548
00:45:52.375 : en:00:45:52.375
00:57:20.687 : en:00:57:20.687
01:07:48.189 : en:01:07:48.189
01:20:06.260 : en:01:20:06.260
-

Скрины

-
[Профиль] [ЛС]

alticor

Пол: Мужской

Стаж: 12 года

Сообщений: 459

Создавать темы 05-Фев-2014 22:23 (спустя 1 год)

[Цитировать]

AlexDiablo, Держи эмоции при себе. Если лень было поднять глаза и посмотреть, что это формат 3D, то сходи к окулисту и купи очки.
[Профиль] [ЛС]
Показать сообщения:    
Ответить на тему

Текущее время: 21-Апр 20:05

Часовой пояс: UTC + 3



Вы не можете начинать темы
Вы не можете отвечать на сообщения
Вы не можете редактировать свои сообщения
Вы не можете удалять свои сообщения
Вы не можете голосовать в опросах
Вы не можете прикреплять файлы к сообщениям
Вы не можете скачивать файлы