(Rap) Каста - The Best (Лучшее) - 2009, FLAC (tracks+.cue), lossless

Ответить на тему
 
Автор Сообщение

Three7 ®

Пол: Мужской

Стаж: 11 года

Сообщений: 426

Откуда: Тула

Создавать темы 05-Сен-2010 22:10

[Цитировать]

Каста - The Best (Лучшее)-- Страна: Россия
Жанр: Rap
Год выпуска: 2009
Формат: FLAC (tracks+.cue)
Битрейт аудио: lossless
Продолжительность: 01:19:37

Трэклист:
    01. На Порядок Выше
    02. Мы Берём Это На Улицах
    03. Ревность
    04. Наши Люди
    05. Сестра
    06. Вокруг Шум
    07. Юго-восточная Европа
    08. Горячее Время
    09. Ды-ды-дым
    10. Радиосигналы
    11. Про Макса
    12. Гончая
    13. Сказка
    14. По Приколу
    15. Куда Надо Смотреть
    16. Нашим Пацанам Посвящается
    17. Встреча
    18. Номерок (п/у Крестная Семья)
    19. Сколько Воинов
    20. Тоска (Змей)
    21. Под Одним Небом
    22. По Голове Себе Постучи

log EAC

EAC extraction logfile from 11. January 2010, 16:40 for CD
Kasta / The Best
Used drive : TSSTcorpCDDVDW TS-L633A Adapter: 1 ID: 0
Read mode : Secure with NO C2, accurate stream, disable cache
Read offset correction : 6
Overread into Lead-In and Lead-Out : No
Used output format : Internal WAV Routines
44.100 Hz; 16 Bit; Stereo
Other options :
Fill up missing offset samples with silence : Yes
Delete leading and trailing silent blocks : No
Native Win32 interface for Win NT & 2000
Track 1
Filename C:\Users\Zenga-Ivona\Desktop\kas\01. Kasta - Na Poryadok Vyshe.wav
Pre-gap length 0:00:02.00
Peak level 99.9 %
Track quality 100.0 %
Test CRC 4276E5E3
Copy CRC 4276E5E3
Copy OK
Track 2
Filename C:\Users\Zenga-Ivona\Desktop\kas\02. Kasta - Revnost.wav
Pre-gap length 0:00:02.00
Peak level 99.9 %
Track quality 100.0 %
Test CRC 00A4BFE8
Copy CRC 00A4BFE8
Copy OK
Track 3
Filename C:\Users\Zenga-Ivona\Desktop\kas\03. Kasta - Nashi Lyudi.wav
Pre-gap length 0:00:02.00
Peak level 99.9 %
Track quality 100.0 %
Test CRC 4E13A4D7
Copy CRC 4E13A4D7
Copy OK
Track 4
Filename C:\Users\Zenga-Ivona\Desktop\kas\04. Kasta - My Berem Eto Na Ulitsah.wav
Peak level 100.0 %
Track quality 100.0 %
Test CRC 7D4BB77F
Copy CRC 7D4BB77F
Copy OK
Track 5
Filename C:\Users\Zenga-Ivona\Desktop\kas\05. Kasta - Vokrug Shum.wav
Pre-gap length 0:00:02.00
Peak level 88.7 %
Track quality 100.0 %
Test CRC 4ECAE971
Copy CRC 4ECAE971
Copy OK
Track 6
Filename C:\Users\Zenga-Ivona\Desktop\kas\06. Kasta - Goryachee Vremya.wav
Pre-gap length 0:00:01.41
Peak level 99.9 %
Track quality 100.0 %
Test CRC 3491C9FF
Copy CRC 3491C9FF
Copy OK
Track 7
Filename C:\Users\Zenga-Ivona\Desktop\kas\07. Kasta - Sestra.wav
Pre-gap length 0:00:01.05
Peak level 99.9 %
Track quality 100.0 %
Test CRC 0249F57D
Copy CRC 0249F57D
Copy OK
Track 8
Filename C:\Users\Zenga-Ivona\Desktop\kas\08. Kasta - Radiosignaly.wav
Pre-gap length 0:00:02.20
Peak level 79.2 %
Track quality 99.9 %
Test CRC 9EEAC1A9
Copy CRC 9EEAC1A9
Copy OK
Track 9
Filename C:\Users\Zenga-Ivona\Desktop\kas\09. Kasta - Pro Maksa.wav
Pre-gap length 0:00:01.16
Peak level 99.9 %
Track quality 100.0 %
Test CRC F1A0E631
Copy CRC F1A0E631
Copy OK
Track 10
Filename C:\Users\Zenga-Ivona\Desktop\kas\10. Kasta - Yugo-Vostochnaya Evropa.wav
Pre-gap length 0:00:02.00
Peak level 99.9 %
Track quality 100.0 %
Test CRC 5903E722
Copy CRC 5903E722
Copy OK
Track 11
Filename C:\Users\Zenga-Ivona\Desktop\kas\11. Kasta - Kuda Nado Smotret.wav
Pre-gap length 0:00:01.14
Peak level 99.9 %
Track quality 100.0 %
Test CRC 5EF8C4A7
Copy CRC 5EF8C4A7
Copy OK
Track 12
Filename C:\Users\Zenga-Ivona\Desktop\kas\12. Kasta - Gonchaya.wav
Pre-gap length 0:00:00.24
Peak level 99.9 %
Track quality 100.0 %
Test CRC BF44DA73
Copy CRC BF44DA73
Copy OK
Track 13
Filename C:\Users\Zenga-Ivona\Desktop\kas\13. Kasta - Dy-dy-dym.wav
Peak level 88.3 %
Track quality 99.9 %
Test CRC 5BF3FE6D
Copy CRC 5BF3FE6D
Copy OK
Track 14
Filename C:\Users\Zenga-Ivona\Desktop\kas\14. Kasta - Skazka.wav
Pre-gap length 0:00:00.80
Peak level 99.9 %
Track quality 100.0 %
Test CRC 68D81EA7
Copy CRC 68D81EA7
Copy OK
Track 15
Filename C:\Users\Zenga-Ivona\Desktop\kas\15. Kasta - Nomerok.wav
Pre-gap length 0:00:01.34
Peak level 99.9 %
Track quality 100.0 %
Test CRC 281C372E
Copy CRC 281C372E
Copy OK
Track 16
Filename C:\Users\Zenga-Ivona\Desktop\kas\16. Kasta - Nashim Pacanam Posvyaschaetsya.wav
Pre-gap length 0:00:00.92
Peak level 99.9 %
Track quality 100.0 %
Test CRC 38BC8E67
Copy CRC 38BC8E67
Copy OK
Track 17
Filename C:\Users\Zenga-Ivona\Desktop\kas\17. Kasta - Vstrecha.wav
Pre-gap length 0:00:01.05
Peak level 88.7 %
Track quality 100.0 %
Test CRC E9DC34DF
Copy CRC E9DC34DF
Copy OK
Track 18
Filename C:\Users\Zenga-Ivona\Desktop\kas\18. Kasta - Po Prikolu.wav
Pre-gap length 0:00:01.05
Peak level 99.9 %
Track quality 99.9 %
Test CRC 6DEBD526
Copy CRC 6DEBD526
Copy OK
Track 19
Filename C:\Users\Zenga-Ivona\Desktop\kas\19. Kasta - Pod Odnim Nebom.wav
Pre-gap length 0:00:01.26
Peak level 99.9 %
Track quality 100.0 %
Test CRC 4D8BDA64
Copy CRC 4D8BDA64
Copy OK
Track 20
Filename C:\Users\Zenga-Ivona\Desktop\kas\20. Kasta - Toska.wav
Pre-gap length 0:00:00.48
Peak level 99.9 %
Track quality 99.9 %
Test CRC 67929662
Copy CRC 67929662
Copy OK
Track 21
Filename C:\Users\Zenga-Ivona\Desktop\kas\21. Kasta - Skolko Voinov.wav
Pre-gap length 0:00:01.02
Peak level 99.9 %
Track quality 100.0 %
Test CRC 4FF3529B
Copy CRC 4FF3529B
Copy OK
Track 22
Filename C:\Users\Zenga-Ivona\Desktop\kas\22. Kasta - Po Golove Sebe Postuchi.wav
Pre-gap length 0:00:02.36
Peak level 88.7 %
Track quality 100.0 %
Test CRC 6C99A7C0
Copy CRC 6C99A7C0
Copy OK
No errors occured
End of status report

.cue

REM GENRE Rap
REM DATE 2009
REM DISCID 1D12A916
REM COMMENT "ExactAudioCopy v0.95b3"
PERFORMER "Каста"
TITLE "The Best"
FILE "01. Kasta - Na Poryadok Vyshe.wav" WAVE
TRACK 01 AUDIO
TITLE "На Порядок Выше "
PERFORMER "Каста"
INDEX 01 00:00:00
TRACK 02 AUDIO
TITLE "Ревность"
PERFORMER "Каста"
INDEX 00 03:58:00
FILE "02. Kasta - Revnost.wav" WAVE
INDEX 01 00:00:00
TRACK 03 AUDIO
TITLE "Наши Люди"
PERFORMER "Каста"
INDEX 00 02:50:69
FILE "03. Kasta - Nashi Lyudi.wav" WAVE
INDEX 01 00:00:00
FILE "04. Kasta - My Berem Eto Na Ulitsah.wav" WAVE
TRACK 04 AUDIO
TITLE "Мы Берем Это На Улицах"
PERFORMER "Каста"
INDEX 01 00:00:00
TRACK 05 AUDIO
TITLE "Вокруг Шум"
PERFORMER "Каста"
INDEX 00 03:29:07
FILE "05. Kasta - Vokrug Shum.wav" WAVE
INDEX 01 00:00:00
TRACK 06 AUDIO
TITLE "Горячее Время"
PERFORMER "Каста"
INDEX 00 03:32:71
FILE "06. Kasta - Goryachee Vremya.wav" WAVE
INDEX 01 00:00:00
TRACK 07 AUDIO
TITLE "Сестра"
PERFORMER "Каста"
INDEX 00 03:33:15
FILE "07. Kasta - Sestra.wav" WAVE
INDEX 01 00:00:00
TRACK 08 AUDIO
TITLE "Радиосигналы"
PERFORMER "Каста"
INDEX 00 03:29:58
FILE "08. Kasta - Radiosignaly.wav" WAVE
INDEX 01 00:00:00
TRACK 09 AUDIO
TITLE "Про Макса"
PERFORMER "Каста"
INDEX 00 03:44:70
FILE "09. Kasta - Pro Maksa.wav" WAVE
INDEX 01 00:00:00
TRACK 10 AUDIO
TITLE "Юго-Восточная Европа"
PERFORMER "Каста"
INDEX 00 03:25:09
FILE "10. Kasta - Yugo-Vostochnaya Evropa.wav" WAVE
INDEX 01 00:00:00
TRACK 11 AUDIO
TITLE "Куда Надо Смотреть"
PERFORMER "Каста"
INDEX 00 03:09:37
FILE "11. Kasta - Kuda Nado Smotret.wav" WAVE
INDEX 01 00:00:00
TRACK 12 AUDIO
TITLE "Гончая"
PERFORMER "Каста"
INDEX 00 03:42:20
FILE "12. Kasta - Gonchaya.wav" WAVE
INDEX 01 00:00:00
FILE "13. Kasta - Dy-dy-dym.wav" WAVE
TRACK 13 AUDIO
TITLE "Ду-Ду-Дум"
PERFORMER "Каста"
INDEX 01 00:00:00
TRACK 14 AUDIO
TITLE "Сказка"
PERFORMER "Каста"
INDEX 00 04:03:69
FILE "14. Kasta - Skazka.wav" WAVE
INDEX 01 00:00:00
TRACK 15 AUDIO
TITLE "Номерок"
PERFORMER "Каста"
INDEX 00 05:14:48
FILE "15. Kasta - Nomerok.wav" WAVE
INDEX 01 00:00:00
TRACK 16 AUDIO
TITLE "Нашим Пацанам Посвящается"
PERFORMER "Каста"
INDEX 00 03:09:17
FILE "16. Kasta - Nashim Pacanam Posvyaschaetsya.wav" WAVE
INDEX 01 00:00:00
TRACK 17 AUDIO
TITLE "Встреча"
PERFORMER "Каста"
INDEX 00 03:35:47
FILE "17. Kasta - Vstrecha.wav" WAVE
INDEX 01 00:00:00
TRACK 18 AUDIO
TITLE "По Приколу"
PERFORMER "Каста"
INDEX 00 03:03:45
FILE "18. Kasta - Po Prikolu.wav" WAVE
INDEX 01 00:00:00
TRACK 19 AUDIO
TITLE "Под Одним Небом"
PERFORMER "Каста"
INDEX 00 02:57:53
FILE "19. Kasta - Pod Odnim Nebom.wav" WAVE
INDEX 01 00:00:00
TRACK 20 AUDIO
TITLE "Тоска"
PERFORMER "Каста"
INDEX 00 03:37:29
FILE "20. Kasta - Toska.wav" WAVE
INDEX 01 00:00:00
TRACK 21 AUDIO
TITLE "Сколько Воинов"
PERFORMER "Каста"
INDEX 00 04:07:25
FILE "21. Kasta - Skolko Voinov.wav" WAVE
INDEX 01 00:00:00
TRACK 22 AUDIO
TITLE "По Голове Себе Постучи"
PERFORMER "Каста"
INDEX 00 03:56:56
FILE "22. Kasta - Po Golove Sebe Postuchi.wav" WAVE
INDEX 01 00:00:00
[Профиль] [ЛС]

Xmenoff

Пол: Не указан

Стаж: 11 года

Сообщений: 9

Создавать темы 06-Сен-2010 00:33 (спустя 2 часа 23 минуты)

[Цитировать]

Спасибо
[Профиль] [ЛС]

Graf

Пол: Не указан

Стаж: 11 года

Сообщений: 43

Откуда: MD-TEAM

Создавать темы 06-Сен-2010 07:51 (спустя 7 часа)

[Цитировать]

Номерок (п/у Крестная Семья)
По Голове Себе Постучи
на диске "Лучшее", да, теперь я уверен, Каста скатилась в говно для мэйнфрэйма
[Профиль] [ЛС]

Diesel

Пол: Мужской

Стаж: 11 года

Сообщений: 54

Откуда: Тула

Создавать темы 09-Сен-2010 00:58 (спустя 2 дня 17 часа)

[Цитировать]

ну и где раздача то??? am ao
[Профиль] [ЛС]
Показать сообщения:    
Ответить на тему

Текущее время: 08-Дек 23:25

Часовой пояс: UTC + 3



Вы не можете начинать темы
Вы не можете отвечать на сообщения
Вы не можете редактировать свои сообщения
Вы не можете удалять свои сообщения
Вы не можете голосовать в опросах
Вы не можете прикреплять файлы к сообщениям
Вы не можете скачивать файлы