(Rap) Каста - Дискография - 1999-2009, APE (image + .cue), lossless

Ответить на тему
 
Автор Сообщение

Three7 ®

Пол: Мужской

Стаж: 11 года

Сообщений: 426

Откуда: Тула

Создавать темы 07-Сен-2010 16:09

[Цитировать]

Каста - Дискография-- -Страна: Россия
Жанр: Rap
Год выпуска: 1999-2009
Формат: APE (image + .cue)
Битрейт аудио: lossless
--

1999 - Трехмерные рифмы

Продолжительность: 01:11:03
Трэклист:
1. Встречайте (интро)
2. Сколько Воинов…
3. Горячие Трубы…
4. Свободный Стиль
5. У Подножия Горы
6. Гимн Заходящего Солнца
7. Кто Будет Пить С Нами?!
8. Они Ревнуют И Завидуют
9. Храм Хип-Хопа
10. Трехмерные Рифмы
11. Мы Берем Это На Улицах
12. Время
13. Вирус
14. Песня Без Темы
15. Сказка О Песочных Часах
16. Я Помню Все
17. Город Мертвецов
18. Наши Люди-

Лог EAC

Exact Audio Copy V0.99 prebeta 4 from 23. January 2008
EAC extraction logfile from 30. July 2008, 23:02
Каста / Трёхмерные Рифмы
Used drive : TEAC CD-W540E Adapter: 0 ID: 0
Read mode : Secure
Utilize accurate stream : Yes
Defeat audio cache : Yes
Make use of C2 pointers : No
Read offset correction : 686
Overread into Lead-In and Lead-Out : No
Fill up missing offset samples with silence : Yes
Delete leading and trailing silent blocks : No
Null samples used in CRC calculations : Yes
Used interface : Installed external ASPI interface
Used output format : Internal WAV Routines
Sample format : 44.100 Hz; 16 Bit; Stereo
TOC of the extracted CD
Track | Start | Length | Start sector | End sector
---------------------------------------------------------
1 | 0:00.00 | 0:43.49 | 0 | 3273
2 | 0:43.49 | 3:56.54 | 3274 | 21027
3 | 4:40.28 | 3:06.19 | 21028 | 34996
4 | 7:46.47 | 4:15.28 | 34997 | 54149
5 | 12:02.00 | 5:00.53 | 54150 | 76702
6 | 17:02.53 | 4:16.36 | 76703 | 95938
7 | 21:19.14 | 3:41.12 | 95939 | 112525
8 | 25:00.26 | 6:03.36 | 112526 | 139786
9 | 31:03.62 | 4:08.32 | 139787 | 158418
10 | 35:12.19 | 4:18.25 | 158419 | 177793
11 | 39:30.44 | 3:32.74 | 177794 | 193767
12 | 43:03.43 | 4:16.33 | 193768 | 213000
13 | 47:20.01 | 4:37.53 | 213001 | 233828
14 | 51:57.54 | 3:42.47 | 233829 | 250525
15 | 55:40.26 | 4:16.63 | 250526 | 269788
16 | 59:57.14 | 3:12.51 | 269789 | 284239
17 | 63:09.65 | 4:07.36 | 284240 | 302800
18 | 67:17.26 | 3:46.13 | 302801 | 319763
Range status and errors
Selected range
Filename E:\Torrent\Каста (Lossless)\Каста - Трёхмерные Рифмы.wav
Peak level 100.0 %
Range quality 99.9 %
Copy CRC 5F19DB0D
Copy OK
No errors occurred
End of status report

2000 - Объединенная Каста - В Полном Действии

Продолжительность: 01:11:27
Трэклист:
1. Каста и Ю.Г. - Ростов-Москва
2. Злой Дух и Каста - К Солнцу
3. Западный Сектор - Эхо Войны
4. Каста - Наши Люди
5. Бледнолицые Нигга'дяи - Оставайся Тем...
6. Карабасс - До Потери Пульса
7. Грани - Поэт (ft. Дымка)
8. Западный Сектор и Змей - Летопись
9. Песочные Люди - Время (Remix)
10. Каста - Призрак Судного Дня (ft. Маша)
11. Каста и Злой Дух - К Солнцу (Remix)
12. Тэйк - Загадка
13. Шымон И Влади - Фристайл (Июль 2000)
14. Каста'97 - Первый Удар (Bonus Track)
15. Каста и Ю.Г. - Ростов-Москва (Инструментал) (Bonus Track)
16. Карабасс - До Потери Пульса (Инструментал) (Bonus Track)-

Отчет EAC

Exact Audio Copy V0.99 prebeta 3 from 28. July 2007
Отчёт EAC об извлечении, выполненном 31. января 2009, 19:25
Various / Объединенная Каста - В Полном Действии
Дисковод: HL-DT-STDVDRAM GSA-4165B Adapter: 1 ID: 0
Режим чтения : Достоверность
Использование точного потока : Да
Отключение кэша аудио : Да
Использование указателей C2 : Нет
Коррекция смещения при чтении : 667
Способность читать области Lead-in и Lead-out : Нет
Заполнение пропущенных сэмплов тишиной : Да
Удаление блоков с тишиной в начале и конце : Нет
При вычислениях CRC использовались нулевые сэмплы : Да
Интерфейс : Установленный внешний ASPI-интерфейс
Выходной формат : Внутренние WAV-операции
Формат сэмплов : 44.100 Гц; 16 бит; стерео
TOC извлечённого CD
Трек | Старт | Длительность | Начальный сектор | Конечный сектор
---------------------------------------------------------------------
1 | 0:00.00 | 5:36.70 | 0 | 25269
2 | 5:36.70 | 4:34.00 | 25270 | 45819
3 | 10:10.70 | 4:55.70 | 45820 | 68014
4 | 15:06.65 | 3:35.30 | 68015 | 84169
5 | 18:42.20 | 5:20.10 | 84170 | 108179
6 | 24:02.30 | 3:00.61 | 108180 | 121740
7 | 27:03.16 | 3:55.45 | 121741 | 139410
8 | 30:58.61 | 5:32.03 | 139411 | 164313
9 | 36:30.64 | 4:20.51 | 164314 | 183864
10 | 40:51.40 | 5:44.30 | 183865 | 209694
11 | 46:35.70 | 4:43.38 | 209695 | 230957
12 | 51:19.33 | 4:16.23 | 230958 | 250180
13 | 55:35.56 | 2:26.54 | 250181 | 261184
14 | 58:02.35 | 4:48.62 | 261185 | 282846
15 | 62:51.22 | 5:37.02 | 282847 | 308123
16 | 68:28.24 | 2:58.57 | 308124 | 321530
Характеристики диапазона извлечения и сообщения об ошибках
Выбранный диапазон
Имя файла C:\Documents and Settings\Администратор\Мои документы\Various - Объединенная Каста - В Полном Действии (2000).wav
Пиковый уровень 100.0 %
Качество диапазона 100.0 %
CRC копии 371CAA24
Копирование... OK
Ошибок не произошло
Конец отчёта

2002 - Громче воды, Выше травы

Продолжительность: 01:08:42
Трэклист:
1. Но пацанам из Касты… (скит)
2. Куда надо смотреть
3. На порядок выше
4. Фальшивые Эм Си
5. Давече в трамвае… (скит)
6. Эй, бабка!!!
7. Раз на раз-два
8. Про Макса
9. Сказка
10. Людям врядли feat. Бланж
11. Из южной столицы России (скит)
12. Ростов-Папа
13. Бархатная пыль
14. Клуб Поэтов / августовский дождь (скит)
15. Доставайте папиросы
16. Нашi люди, пiдiмайте руки (скит)
17. Мы берем это на улицах
18. Рефлекс борьбы
19. Нашим пацанам посвящается
20. Язычество
21. Последний трек-

Лог EAC

Exact Audio Copy V0.99 prebeta 4 from 23. January 2008
EAC extraction logfile from 2. August 2008, 22:11
Каста / Громче воды, выше травы
Used drive : TEAC CD-W540E Adapter: 0 ID: 0
Read mode : Secure
Utilize accurate stream : Yes
Defeat audio cache : Yes
Make use of C2 pointers : No
Read offset correction : 686
Overread into Lead-In and Lead-Out : No
Fill up missing offset samples with silence : Yes
Delete leading and trailing silent blocks : No
Null samples used in CRC calculations : Yes
Used interface : Installed external ASPI interface
Used output format : Internal WAV Routines
Sample format : 44.100 Hz; 16 Bit; Stereo
TOC of the extracted CD
Track | Start | Length | Start sector | End sector
---------------------------------------------------------
1 | 0:00.00 | 0:26.44 | 0 | 1993
2 | 0:26.44 | 3:42.19 | 1994 | 18662
3 | 4:08.63 | 3:58.00 | 18663 | 36512
4 | 8:06.63 | 3:41.30 | 36513 | 53117
5 | 11:48.18 | 0:36.38 | 53118 | 55855
6 | 12:24.56 | 3:28.04 | 55856 | 71459
7 | 15:52.60 | 5:53.73 | 71460 | 98007
8 | 21:46.58 | 3:24.72 | 98008 | 113379
9 | 25:11.55 | 5:14.52 | 113380 | 136981
10 | 30:26.32 | 5:44.50 | 136982 | 162831
11 | 36:11.07 | 0:21.02 | 162832 | 164408
12 | 36:32.09 | 3:57.15 | 164409 | 182198
13 | 40:29.24 | 4:23.44 | 182199 | 201967
14 | 44:52.68 | 0:30.22 | 201968 | 204239
15 | 45:23.15 | 4:06.45 | 204240 | 222734
16 | 49:29.60 | 0:08.02 | 222735 | 223336
17 | 49:37.62 | 3:28.59 | 223337 | 238995
18 | 53:06.46 | 3:36.59 | 238996 | 255254
19 | 56:43.30 | 3:35.06 | 255255 | 271385
20 | 60:18.36 | 5:03.74 | 271386 | 294184
21 | 65:22.35 | 2:04.04 | 294185 | 303488
22 | 67:26.39 | 0:14.00 | 303489 | 304538
23 | 67:40.39 | 0:14.00 | 304539 | 305588
24 | 67:54.39 | 0:14.00 | 305589 | 306638
25 | 68:08.39 | 0:14.00 | 306639 | 307688
26 | 68:22.39 | 0:04.00 | 307689 | 307988
27 | 68:26.39 | 0:15.74 | 307989 | 309187
28 | 71:14.38 | 0:42.59 | 320588 | 323796
Range status and errors
Selected range
Filename E:\Torrent\Каста (Lossless)\Каста - Громче воды, выше травы\Каста - Громче воды, выше травы.wav
Peak level 100.0 %
Range quality 100.0 %
Copy CRC 54B8B642
Copy OK
No errors occurred
End of status report

2002 - Что нам делать в Греции?

Продолжительность: 00:52:55
Трэклист:
1. Что нам делать в Греции
2. Пляски
3. Ты должна остаться
4. Ревность
5. Чисто в стиле нашей…
6. Юго-восточная Европа
7. Дубликатор
8. В. К. Пыжикова
9. Искусственный человек
10. Горячее время
11. Как создавался стиль
12. Наши люди 2
13. 25 июля
14. Слово за слово (вступление)
15. Слово за слово
16. Интересное место (из цикла «Краеведы»)
17. Дух продюсера : )
18. Благодарности-

Лог EAC

Exact Audio Copy V0.99 prebeta 4 from 23. January 2008
EAC extraction logfile from 30. July 2008, 23:51
Каста / Что нам делать в Греции
Used drive : TEAC CD-W540E Adapter: 0 ID: 0
Read mode : Secure
Utilize accurate stream : Yes
Defeat audio cache : Yes
Make use of C2 pointers : No
Read offset correction : 686
Overread into Lead-In and Lead-Out : No
Fill up missing offset samples with silence : Yes
Delete leading and trailing silent blocks : No
Null samples used in CRC calculations : Yes
Used interface : Installed external ASPI interface
Used output format : Internal WAV Routines
Sample format : 44.100 Hz; 16 Bit; Stereo
TOC of the extracted CD
Track | Start | Length | Start sector | End sector
---------------------------------------------------------
1 | 0:00.00 | 3:49.67 | 0 | 17241
2 | 3:49.67 | 3:25.14 | 17242 | 32630
3 | 7:15.06 | 4:31.24 | 32631 | 52979
4 | 11:46.30 | 3:00.39 | 52980 | 66518
5 | 14:46.69 | 0:37.18 | 66519 | 69311
6 | 15:24.12 | 3:22.33 | 69312 | 84494
7 | 18:46.45 | 4:38.06 | 84495 | 105350
8 | 23:24.51 | 0:56.33 | 105351 | 109583
9 | 24:21.09 | 4:14.28 | 109584 | 128661
10 | 28:35.37 | 3:34.44 | 128662 | 144755
11 | 32:10.06 | 2:57.13 | 144756 | 158043
12 | 35:07.19 | 3:55.45 | 158044 | 175713
13 | 39:02.64 | 0:13.00 | 175714 | 176688
14 | 39:15.64 | 0:32.36 | 176689 | 179124
15 | 39:48.25 | 6:03.07 | 179125 | 206356
16 | 45:51.32 | 4:17.62 | 206357 | 225693
17 | 50:09.19 | 2:46.52 | 225694 | 238195
18 | 55:27.71 | 1:55.26 | 249596 | 258246
Range status and errors
Selected range
Filename E:\Torrent\Каста (Lossless)\Каста - Что нам делать в Греции\Каста - Что нам делать в Греции.wav
Peak level 100.0 %
Range quality 100.0 %
Copy CRC D1EF46D1
Copy OK
No errors occurred
End of status report

2004 - Хамиль (Каста) - Феникс

Продолжительность: 01:09:54
Трэклист:
01. Приглашение
02. Узник (Предисловие)
03. Пир
04. Сестра
05. Пристань
06. Колыбель
07. Для Великих Открытий
08. Под Одним Небом
09. Черви Ненависти
10. Дальше - Больше (Антракт)
11. Ты Ещё В Майке Вышел В Ноябре... (Скит)
12. Гончая
13. Вечер Красит Город
14. Затмение (Трилогия, 1 часть)
15. Держись Подальше...
16. Наяву Или Во Сне (Трилогия, 2 Часть)
17. Уже Вечны...
18. Секрет (Трилогия, 3 Часть)
19. Феникс
20. Ярмарка (Предисловие)
21. Кукловод
22. Черные Дожди (Предисловие)
23. Стон Искалеченных Земель
24. Радость Битвы-

Отчёт EAC

Exact Audio Copy V0.99 prebeta 4 from 23. January 2008
Отчёт EAC об извлечении, выполненном 25. ноября 2009, 20:01
Хамиль (Каста) / Феникс
Дисковод: HL-DT-STDVD-RW_GSA-H41N Adapter: 0 ID: 0
Режим чтения : Достоверность
Использование точного потока : Да
Отключение кэша аудио : Да
Использование указателей C2 : Нет
Коррекция смещения при чтении : 667
Способность читать области Lead-in и Lead-out : Нет
Заполнение пропущенных сэмплов тишиной : Да
Удаление блоков с тишиной в начале и конце : Нет
При вычислениях CRC использовались нулевые сэмплы : Да
Интерфейс : Установленный внешний ASPI-интерфейс
Выходной формат : Внутренние WAV-операции
Формат сэмплов : 44.100 Гц; 16 бит; стерео
TOC извлечённого CD
Трек | Старт | Длительность | Начальный сектор | Конечный сектор
---------------------------------------------------------------------
1 | 0:00.00 | 0:56.57 | 0 | 4256
2 | 0:56.57 | 0:15.65 | 4257 | 5446
3 | 1:12.47 | 3:58.36 | 5447 | 23332
4 | 5:11.08 | 3:31.10 | 23333 | 39167
5 | 8:42.18 | 4:08.36 | 39168 | 57803
6 | 12:50.54 | 0:24.55 | 57804 | 59658
7 | 13:15.34 | 3:43.62 | 59659 | 76445
8 | 16:59.21 | 3:37.39 | 76446 | 92759
9 | 20:36.60 | 4:50.69 | 92760 | 114578
10 | 25:27.54 | 0:26.66 | 114579 | 116594
11 | 25:54.45 | 0:12.56 | 116595 | 117550
12 | 26:07.26 | 3:38.41 | 117551 | 133941
13 | 29:45.67 | 4:00.24 | 133942 | 151965
14 | 33:46.16 | 4:24.62 | 151966 | 171827
15 | 38:11.03 | 0:39.68 | 171828 | 174820
16 | 38:50.71 | 5:09.34 | 174821 | 198029
17 | 44:00.30 | 1:18.60 | 198030 | 203939
18 | 45:19.15 | 5:20.05 | 203940 | 227944
19 | 50:39.20 | 3:25.53 | 227945 | 243372
20 | 54:04.73 | 0:23.23 | 243373 | 245120
21 | 54:28.21 | 5:53.06 | 245121 | 271601
22 | 60:21.27 | 0:28.46 | 271602 | 273747
23 | 60:49.73 | 3:56.67 | 273748 | 291514
24 | 64:46.65 | 5:07.19 | 291515 | 314558
Характеристики диапазона извлечения и сообщения об ошибках
Выбранный диапазон
Имя файла E:\Lossless\Каста\Хамиль - Феникс (2004)\Хамиль (Каста) - Феникс (2004).wav
Пиковый уровень 98.6 %
Качество диапазона 100.0 %
CRC копии D2078CE7
Копирование... OK
Ошибок не произошло
Конец отчёта

2006 - По приколу

Продолжительность: 00:21:58
Трэклист:
1. По приколу (грязная версия)
2. Западня
3. Беренцев
4. Глупо, но класс
5. Капсулы скорости
6. Номерок
7. По приколу (оркестровая версия)
+ Video: "Капсулы скорости"-

Лог EAC

Exact Audio Copy V0.99 prebeta 4 from 23. January 2008
EAC extraction logfile from 31. July 2008, 0:15
Каста / По Приколу
Used drive : TEAC CD-W540E Adapter: 0 ID: 0
Read mode : Secure
Utilize accurate stream : Yes
Defeat audio cache : Yes
Make use of C2 pointers : No
Read offset correction : 686
Overread into Lead-In and Lead-Out : No
Fill up missing offset samples with silence : Yes
Delete leading and trailing silent blocks : No
Null samples used in CRC calculations : Yes
Used interface : Installed external ASPI interface
Used output format : Internal WAV Routines
Sample format : 44.100 Hz; 16 Bit; Stereo
TOC of the extracted CD
Track | Start | Length | Start sector | End sector
---------------------------------------------------------
1 | 0:00.00 | 2:17.35 | 0 | 10309
2 | 2:17.35 | 3:13.35 | 10310 | 24819
3 | 5:30.70 | 3:47.47 | 24820 | 41891
4 | 9:18.42 | 3:25.06 | 41892 | 57272
5 | 12:43.48 | 3:06.22 | 57273 | 71244
6 | 15:49.70 | 3:11.15 | 71245 | 85584
7 | 19:01.10 | 2:57.54 | 85585 | 98913
8 | 24:30.64 | 25:00.62 | 110314 | 222875
Range status and errors
Selected range
Filename E:\Torrent\Каста (Lossless)\Каста - По Приколу\Каста - По Приколу.wav
Peak level 99.9 %
Range quality 100.0 %
Copy CRC 13604547
Copy OK
No errors occurred
End of status report

2009 - Быль В Глаза (Переиздание)

Продолжительность: 01:11:41
Трэклист:
1. В Супермаркете
2. Встреча
3. Нормально Всё
4. Загадка (Скит)
5. Ды-ды-дым
6. По Голове Себе Постучи
7. Истина Где-то Рядом (Полная Версия)
8. Вокруг Шум
9. Подарок
10. Любовь (Скит)
11. На Крыльях Любви
12. Вселенская Обида
13. Радиосигналы
14. Романтика
15. Голос Брехуна
16. Осень (Скит)
17. Кореша
18. Проснись И Пой
19. Точу Как Хочу (Скит)
20. Добавь Жару
21. Лида И Зверёк
22. Муза
23. Нормально Всё (Ремикс)
24. Другая Встреча
+ Video: "Радиосигналы", "Вокруг Шум", "Встреча"-

log EAC

EAC extraction logfile from 13. January 2010, 14:22 for CD
Kasta / Byl V Glaza
Used drive : TSSTcorpCDDVDW TS-L633A Adapter: 1 ID: 0
Read mode : Secure with NO C2, accurate stream, disable cache
Read offset correction : 6
Overread into Lead-In and Lead-Out : No
Used output format : Internal WAV Routines
44.100 Hz; 16 Bit; Stereo
Other options :
Fill up missing offset samples with silence : Yes
Delete leading and trailing silent blocks : No
Native Win32 interface for Win NT & 2000
Track 1
Filename C:\Users\Zenga-Ivona\Desktop\kas\01. Kasta - V Supermarkete.wav
Pre-gap length 0:00:02.00
Peak level 100.0 %
Track quality 100.0 %
Test CRC 51ADAF6A
Copy CRC 51ADAF6A
Copy OK
Track 2
Filename C:\Users\Zenga-Ivona\Desktop\kas\02. Kasta - Vstrecha.wav
Peak level 100.0 %
Track quality 99.9 %
Test CRC 84864383
Copy CRC 84864383
Copy OK
Track 3
Filename C:\Users\Zenga-Ivona\Desktop\kas\03. Kasta - Normalno Vse.wav
Peak level 100.0 %
Track quality 100.0 %
Test CRC 82F9EDDC
Copy CRC 82F9EDDC
Copy OK
Track 4
Filename C:\Users\Zenga-Ivona\Desktop\kas\04. Kasta - Zagadka (Skit).wav
Pre-gap length 0:00:01.00
Peak level 100.0 %
Track quality 100.0 %
Test CRC FB609E4D
Copy CRC FB609E4D
Copy OK
Track 5
Filename C:\Users\Zenga-Ivona\Desktop\kas\05. Kasta - Dy-dy-dym.wav
Peak level 99.5 %
Track quality 100.0 %
Test CRC E709B7C2
Copy CRC E709B7C2
Copy OK
Track 6
Filename C:\Users\Zenga-Ivona\Desktop\kas\06. Kasta - Po Golove Sebe Postuchi.wav
Pre-gap length 0:00:03.00
Peak level 100.0 %
Track quality 100.0 %
Test CRC 1E28B7E6
Copy CRC 1E28B7E6
Copy OK
Track 7
Filename C:\Users\Zenga-Ivona\Desktop\kas\07. Kasta - Istina Gde-to Ryadom (Polnaya Versiya).wav
Pre-gap length 0:00:02.00
Peak level 100.0 %
Track quality 100.0 %
Test CRC 0D7F7384
Copy CRC 0D7F7384
Copy OK
Track 8
Filename C:\Users\Zenga-Ivona\Desktop\kas\08. Kasta - Vokrug Shum.wav
Peak level 100.0 %
Track quality 100.0 %
Test CRC 05CF6D8A
Copy CRC 05CF6D8A
Copy OK
Track 9
Filename C:\Users\Zenga-Ivona\Desktop\kas\09. Kasta - Podarok.wav
Pre-gap length 0:00:02.00
Peak level 100.0 %
Track quality 100.0 %
Test CRC 088D7E99
Copy CRC 088D7E99
Copy OK
Track 10
Filename C:\Users\Zenga-Ivona\Desktop\kas\10. Kasta - Lyubov (Skit).wav
Pre-gap length 0:00:02.00
Peak level 100.0 %
Track quality 100.0 %
Test CRC 28453122
Copy CRC 28453122
Copy OK
Track 11
Filename C:\Users\Zenga-Ivona\Desktop\kas\11. Kasta - Na Krylyah Lyubvi.wav
Peak level 94.1 %
Track quality 99.9 %
Test CRC 95D9E9E9
Copy CRC 95D9E9E9
Copy OK
Track 12
Filename C:\Users\Zenga-Ivona\Desktop\kas\12. Kasta - Vselenskaya Obida.wav
Pre-gap length 0:00:03.00
Peak level 100.0 %
Track quality 100.0 %
Test CRC 86204AA3
Copy CRC 86204AA3
Copy OK
Track 13
Filename C:\Users\Zenga-Ivona\Desktop\kas\13. Kasta - Radiosignaly.wav
Pre-gap length 0:00:03.00
Peak level 89.3 %
Track quality 100.0 %
Test CRC 71D4E343
Copy CRC 71D4E343
Copy OK
Track 14
Filename C:\Users\Zenga-Ivona\Desktop\kas\14. Kasta - Romantika.wav
Pre-gap length 0:00:03.00
Peak level 100.0 %
Track quality 100.0 %
Test CRC BD62E2FF
Copy CRC BD62E2FF
Copy OK
Track 15
Filename C:\Users\Zenga-Ivona\Desktop\kas\15. Kasta - Golos Brehuna.wav
Pre-gap length 0:00:03.00
Peak level 100.0 %
Track quality 100.0 %
Test CRC 69F96D57
Copy CRC 69F96D57
Copy OK
Track 16
Filename C:\Users\Zenga-Ivona\Desktop\kas\16. Kasta - Osen (Skit).wav
Pre-gap length 0:00:02.00
Peak level 100.0 %
Track quality 100.0 %
Test CRC 0EF5E918
Copy CRC 0EF5E918
Copy OK
Track 17
Filename C:\Users\Zenga-Ivona\Desktop\kas\17. Kasta - Koresha.wav
Pre-gap length 0:00:01.00
Peak level 94.1 %
Track quality 100.0 %
Test CRC 7EF19BDA
Copy CRC 7EF19BDA
Copy OK
Track 18
Filename C:\Users\Zenga-Ivona\Desktop\kas\18. Kasta - Prosnis i Poy.wav
Pre-gap length 0:00:03.00
Peak level 100.0 %
Track quality 99.9 %
Test CRC 9B1823AF
Copy CRC 9B1823AF
Copy OK
Track 19
Filename C:\Users\Zenga-Ivona\Desktop\kas\19. Kasta - Tochu Kak Hochu (Skit).wav
Peak level 82.1 %
Track quality 100.0 %
Test CRC BC1E862E
Copy CRC BC1E862E
Copy OK
Track 20
Filename C:\Users\Zenga-Ivona\Desktop\kas\20. Kasta - Dobav Zharu.wav
Peak level 100.0 %
Track quality 100.0 %
Test CRC 98CD4A81
Copy CRC 98CD4A81
Copy OK
Track 21
Filename C:\Users\Zenga-Ivona\Desktop\kas\21. Kasta - Lida I Zverek.wav
Pre-gap length 0:00:04.00
Peak level 100.0 %
Track quality 99.9 %
Test CRC 604BFAE8
Copy CRC 604BFAE8
Copy OK
Track 22
Filename C:\Users\Zenga-Ivona\Desktop\kas\22. Kasta - Muza.wav
Pre-gap length 0:00:04.00
Peak level 100.0 %
Track quality 99.9 %
Test CRC 0EE78D15
Copy CRC 0EE78D15
Copy OK
Track 23
Filename C:\Users\Zenga-Ivona\Desktop\kas\23. Kasta - Normalno Vse (Remix).wav
Pre-gap length 0:00:03.00
Peak level 100.0 %
Track quality 100.0 %
Test CRC 99175C14
Copy CRC 99175C14
Copy OK
Track 24
Filename C:\Users\Zenga-Ivona\Desktop\kas\24. Kasta - Drugaya Vstrecha.wav
Pre-gap length 0:00:03.00
Suspicious position 0:02:31
Peak level 100.0 %
Track quality 99.6 %
Test CRC 6C4B50EF
Copy CRC 6C4B50EF
Copy finished
There were errors
End of status report
-Released by:
[Профиль] [ЛС]

Diesel

Пол: Мужской

Стаж: 11 года

Сообщений: 54

Откуда: Тула

Создавать темы 09-Сен-2010 00:59 (спустя 1 день 8 часа)

[Цитировать]

раздавать то думаешь??? aq
[Профиль] [ЛС]

BROOKLIN

Пол: Мужской

Стаж: 10 года

Сообщений: 194

Откуда: Тульская область, город Ясногорск

Создавать темы 09-Сен-2010 14:52 (спустя 13 часа)

[Цитировать]

в 2010 году альбомов пока что не было?
-----
вопрос, через что открывать .ape и .cue файлы? можно ли разбить .ape файл на несколько частей? как именно?
[Профиль] [ЛС]

Diesel

Пол: Мужской

Стаж: 11 года

Сообщений: 54

Откуда: Тула

Создавать темы 09-Сен-2010 20:01 (спустя 5 часа)

[Цитировать]

В 2010 Хамиль и Змей выпустили альбом.
[Профиль] [ЛС]

Three7 ®

Пол: Мужской

Стаж: 11 года

Сообщений: 426

Откуда: Тула

Создавать темы 09-Сен-2010 20:12 (спустя 10 минуты)

[Цитировать]

BROOKLIN открываются любым проигрывателем (AIMP, WinAmp, Foobar2000). Чтобы разбить образ на треки открываешь .cue-файл в программе Cue Splitter.
[Профиль] [ЛС]

Бартмэн

Пол: Не указан

Стаж: 10 года

Сообщений: 5

Создавать темы 30-Окт-2010 20:34 (спустя 1 месяц 21 день)

[Цитировать]

раздайте!!!!!!!
[Профиль] [ЛС]

Swopp

Пол: Не указан

Стаж: 10 года

Сообщений: 4

Создавать темы 01-Янв-2012 21:10 (спустя 1 год 2 месяца)

[Цитировать]

люди плизззз сядте на раздачу плизззз
[Профиль] [ЛС]

MAFAKER

Пол: Мужской

Стаж: 11 года

Сообщений: 4

Откуда: Новомосковск

Создавать темы 10-Мар-2012 21:19 (спустя 2 месяца 9 дня)

[Цитировать]

где раздаватель??
[Профиль] [ЛС]
Показать сообщения:    
Ответить на тему

Текущее время: 16-Дек 15:17

Часовой пояс: UTC + 3



Вы не можете начинать темы
Вы не можете отвечать на сообщения
Вы не можете редактировать свои сообщения
Вы не можете удалять свои сообщения
Вы не можете голосовать в опросах
Вы не можете прикреплять файлы к сообщениям
Вы не можете скачивать файлы