Свадьба в Малиновке (Андрей Тутышкин) [1967, СССР, Комедия, мюзикл, BDRip 720p ]

Ответить на тему
 
Автор Сообщение

Toshik ®

Пол: Не указан

Стаж: 13 года

Сообщений: 58

Откуда: Новомосковск

Создавать темы 15-Янв-2011 10:31

[Цитировать]

Свадьба в МалиновкеГод выпуска: 1967
Страна: СССР
Жанр: мюзикл, комедия
Продолжительность: 01:32:19
Перевод: Не требуется
Режиссер: Андрей Тутышкин
Сценарий: Борис Александров, Леонид Юхвид
Оператор: Вячеслав Фастович
Композитор: Борис Александров
В ролях: Владимир Самойлов (Назар Дума), Людмила Алфимова (Софья), Валентина Николаенко (Яринка), Евгений Лебедев (Нечипор), Зоя Фёдорова (Горпина Дормидонтовна), Гелий Сысоев (Андрейка), Михаил Пуговкин (Яшка-артиллерист), Николай Сличенко (Петря Бессарабец), Андрей Абрикосов (Балясный), Григорий Абрикосов (Грициан Таврический), Михаил Водяной (Попандопуло), Тамара Носова (Комариха)-Мировая премьера: 13 ноября 1967
Релиз на Blu-ray: 15 декабря 2010, «Парадиз-ВC»-Описание: Идет гражданская воина. В украинской деревне то и дело меняется власть. Чтобы разделаться с бандой головорезов, красный командир уговаривает девушку Яринку разыграть ее свадьбу с атаманом…--Качество: BDRip 720p
Формат: Matroska
Видео: AVC; 1280x544 (2.35:1); 5117 Kbps; 23,976 fps; 0,307 bpp
Аудио №1: Russian; DTS; 1509 Kbps; CBR; 6 ch; 24 bit
Аудио №2: Russian; AC3; 448 Kbps; CBR; 6 ch
Субтитры №1: English
Субтитры №2: Russian-

Знаете ли Вы, что...

  • Занимает по посещаемости 5-е место среди отечественных фильмов за всю историю советского кинопроката.
  • Фильм действительно снимался в селе Малиновке Чугуевского района Харьковской области.

mediainfo

Общее
UniqueID/String : 209999321207810313044358886781646259989 (0x9DFC65E9FB0C8CDD95016F5D976BC715)
Полное имя : I:\encode\Svadba v Malinovke (720p.dvd5.Toshik).mkv
Формат : Matroska
Размер файла : 4,66 Гбайт
Продолжительность : 1 ч. 32 м.
Общий поток : 7219 Кбит/сек
Дата кодирования : UTC 2011-01-10 18:07:14
Программа кодирования : mkvmerge v4.4.0 ('Die Wiederkehr') сборка от Oct 31 2010 21:52:48
Библиотека кодирования : libebml v1.0.0 + libmatroska v1.0.0
Видео
Идентификатор : 3
Формат : AVC
Формат/Информация : Advanced Video Codec
Профиль формата : High@L4.1
Параметр CABAC формата : Да
Параметр ReFrames формата : 12 кадры
Параметры GOP формата : M=5, N=6
Идентификатор кодека : V_MPEG4/ISO/AVC
Продолжительность : 1 ч. 32 м.
Битрейт : 5260 Кбит/сек
Ширина : 1280 пикс.
Высота : 544 пикс.
Соотношение сторон : 2,35:1
Частота кадров : 23,976 кадр/сек
Цветовое пространство : YUV
Подвыборка цветности : 4:2:0
Битовая глубина : 8 бит
Тип развёртки : Прогрессивная
Бит/(Пиксели*Кадры) : 0.315
Размер потока : 3,30 Гбайт (71%)
Заголовок : Rip by Toshik®
Библиотека кодирования : x264 core 112 r1834 a51816a
Настройки программы : cabac=1 / ref=12 / deblock=1:-2:-2 / analyse=0x3:0x133 / me=umh / subme=10 / psy=1 / psy_rd=0.98:0.00 / mixed_ref=1 / me_range=48 / chroma_me=1 / trellis=2 / 8x8dct=1 / cqm=0 / deadzone=21,11 / fast_pskip=0 / chroma_qp_offset=-2 / threads=6 / sliced_threads=0 / nr=0 / decimate=1 / interlaced=0 / constrained_intra=0 / bframes=9 / b_pyramid=2 / b_adapt=2 / b_bias=0 / direct=3 / weightb=1 / open_gop=0 / weightp=2 / keyint=250 / keyint_min=23 / scenecut=40 / intra_refresh=0 / rc=2pass / mbtree=0 / bitrate=5260 / ratetol=1.0 / qcomp=0.65 / qpmin=0 / qpmax=51 / qpstep=4 / cplxblur=20.0 / qblur=0.5 / ip_ratio=1.40 / pb_ratio=1.30 / aq=1:1.00
Язык : Russian
Основные цвета : BT.709-5, BT.1361, IEC 61966-2-4, SMPTE RP177
Характеристики трансфера : BT.709-5, BT.1361
Коэффициенты матрицы : BT.709-5, BT.1361, IEC 61966-2-4 709, SMPTE RP177
Аудио #1
Идентификатор : 1
Формат : DTS
Формат/Информация : Digital Theater Systems
Идентификатор кодека : A_DTS
Продолжительность : 1 ч. 32 м.
Вид битрейта : Постоянный
Битрейт : 1510 Кбит/сек
Канал(ы) : 6 канала(ов)
Расположение каналов : Front: L C R, Side: L R, LFE
Частота : 48,0 КГц
Битовая глубина : 24 бит
Метод сжатия : С потерями
Размер потока : 997 Мбайт (21%)
Заголовок : DTS 1510 kbps
Язык : Russian
Аудио #2
Идентификатор : 2
Формат : AC-3
Формат/Информация : Audio Coding 3
Расширение режима : CM (complete main)
Идентификатор кодека : A_AC3
Продолжительность : 1 ч. 32 м.
Вид битрейта : Постоянный
Битрейт : 448 Кбит/сек
Канал(ы) : 6 канала(ов)
Расположение каналов : Front: L C R, Side: L R, LFE
Частота : 48,0 КГц
Битовая глубина : 16 бит
Метод сжатия : С потерями
Размер потока : 296 Мбайт (6%)
Заголовок : DD 448 kbps
Язык : Russian
Текст #1
Идентификатор : 4
Формат : UTF-8
Идентификатор кодека : S_TEXT/UTF8
Идентификатор кодека/Информация : UTF-8 Plain Text
Язык : English
Текст #2
Идентификатор : 5
Формат : UTF-8
Идентификатор кодека : S_TEXT/UTF8
Идентификатор кодека/Информация : UTF-8 Plain Text
Язык : Russian

скрины





Rip by Toshik®
у меня росинтел,качается как с внехи.
Тоорент бы перезалит, вырезана дорога DD ввиду несоответсвия правилам на рутрекере, и дабы продлить жизнь релизу перезалил и там и тут.


Последний раз редактировалось: Toshik (2011-03-08 16:55), всего редактировалось 13 раз(а)
[Профиль] [ЛС]

alticor

Пол: Мужской

Стаж: 13 года

Сообщений: 458

Создавать темы 15-Янв-2011 11:15 (спустя 43 минуты)

[Цитировать]

Замените постер. Тут все таки не DVD
[Профиль] [ЛС]

Toshik ®

Пол: Не указан

Стаж: 13 года

Сообщений: 58

Откуда: Новомосковск

Создавать темы 15-Янв-2011 11:33 (спустя 17 минуты)

[Цитировать]

поправил.
[Профиль] [ЛС]

alticor

Пол: Мужской

Стаж: 13 года

Сообщений: 458

Создавать темы 15-Янв-2011 11:38 (спустя 5 минуты)

[Цитировать]

Скриншоты либо полноразмерные, либо при помощи тэга "Эскиз"
Сравнения тоже ни к чему
[Профиль] [ЛС]

Toshik ®

Пол: Не указан

Стаж: 13 года

Сообщений: 58

Откуда: Новомосковск

Создавать темы 15-Янв-2011 11:51 (спустя 12 минуты)

[Цитировать]

допустим полноразмерные
[Профиль] [ЛС]
Показать сообщения:    
Ответить на тему

Текущее время: 14-Июн 14:50

Часовой пояс: UTC + 3



Вы не можете начинать темы
Вы не можете отвечать на сообщения
Вы не можете редактировать свои сообщения
Вы не можете удалять свои сообщения
Вы не можете голосовать в опросах
Вы не можете прикреплять файлы к сообщениям
Вы не можете скачивать файлы