(Rap Rock / Alternative / Hip-Hop) Lupe Fiasco - Lasers - 2011, FLAC (tracks + .cue), lossless

Ответить на тему
 
Автор Сообщение

Three7 ®

Пол: Мужской

Стаж: 11 года

Сообщений: 464

Откуда: Тула

Создавать темы 27-Апр-2011 18:50

[Цитировать]

Lupe Fiasco - Lasers- Страна: USA
Жанр: Rap Rock / Alternative / Hip-Hop
Год выпуска: 2011
Формат: FLAC (tracks + .cue)
Битрейт аудио: lossless
Продолжительность: 00:47:41
Трэклист:
01. Letting Go (featuring Sarah Green)
02. Words I Never Said (featuring Skylar Grey)
03. Till I Get There
04. I Don’t Wanna Care Right Now (featuring MDMA)
05. Out of My Head (featuring Trey Songz)
06. The Show Goes On
07. Beautiful Lasers (2 Ways) (featuring MDMA)
08. Coming Up (featuring MDMA)
09. State Run Radio (featuring Matt Mahaffey)
10. Break the Chain (featuring Eric Turner and Sway)
11. All Black Everything
12. Never Forget You (featuring John Legend)

Лог создания рипа

Exact Audio Copy V1.0 beta 1 from 15. November 2010
EAC extraction logfile from 4. March 2011, 14:21
Lupe Fiasco / Lasers
Used drive  : LITE-ON DVDRW SOHW-1693S   Adapter: 2  ID: 0
Read mode               : Secure
Utilize accurate stream : Yes
Defeat audio cache      : Yes
Make use of C2 pointers : No
Read offset correction                      : 12
Overread into Lead-In and Lead-Out          : No
Fill up missing offset samples with silence : Yes
Delete leading and trailing silent blocks   : No
Null samples used in CRC calculations       : Yes
Used interface                              : Native Win32 interface for Win NT & 2000
Gap handling                                : Appended to previous track
Used output format              : User Defined Encoder
Selected bitrate                : 128 kBit/s
Quality                         : High
Add ID3 tag                     : No
Command line compressor         : C:\Program Files (x86)\FLAC\flac.exe
Additional command line options : -V -8 -T "artist=%a" -T "title=%t" -T "album=%g" -T "date=%y" -T "tracknumber=%n" -T "genre=%m" %s
TOC of the extracted CD
     Track |   Start  |  Length  | Start sector | End sector
    ---------------------------------------------------------
        1  |  0:00.00 |  4:26.45 |         0    |    19994
        2  |  4:26.45 |  4:16.72 |     19995    |    39266
        3  |  8:43.42 |  3:23.73 |     39267    |    54564
        4  | 12:07.40 |  4:15.51 |     54565    |    73740
        5  | 16:23.16 |  3:24.00 |     73741    |    89040
        6  | 19:47.16 |  3:56.50 |     89041    |   106790
        7  | 23:43.66 |  4:01.64 |    106791    |   124929
        8  | 27:45.55 |  3:58.33 |    124930    |   142812
        9  | 31:44.13 |  3:57.18 |    142813    |   160605
       10  | 35:41.31 |  4:21.48 |    160606    |   180228
       11  | 40:03.04 |  3:40.66 |    180229    |   196794
       12  | 43:43.70 |  4:04.37 |    196795    |   215131
Track  1
     Filename C:\FLAC Rips\Lupe Fiasco - Lasers(2011) - FLAC\01-Letting Go (Feat. Sarah Green).wav
     Pre-gap length  0:00:02.00
     Peak level 98.8 %
     Extraction speed 1.8 X
     Track quality 100.0 %
     Test CRC F2AEF5A9
     Copy CRC F2AEF5A9
     Track not present in AccurateRip database
     Copy OK
Track  2
     Filename C:\FLAC Rips\Lupe Fiasco - Lasers(2011) - FLAC\02-Words I Never Said (Feat. Skylar Grey).wav
     Peak level 98.8 %
     Extraction speed 1.8 X
     Track quality 100.0 %
     Test CRC 6F9D7206
     Copy CRC 6F9D7206
     Track not present in AccurateRip database
     Copy OK
Track  3
     Filename C:\FLAC Rips\Lupe Fiasco - Lasers(2011) - FLAC\03-Till I Get There.wav
     Peak level 99.3 %
     Extraction speed 1.7 X
     Track quality 100.0 %
     Test CRC 05D7BB1C
     Copy CRC 05D7BB1C
     Track not present in AccurateRip database
     Copy OK
Track  4
     Filename C:\FLAC Rips\Lupe Fiasco - Lasers(2011) - FLAC\04-I Don't Wanna Care Right Now (Feat. MDMA).wav
     Peak level 98.8 %
     Extraction speed 1.4 X
     Track quality 99.9 %
     Test CRC C5788E2B
     Copy CRC C5788E2B
     Track not present in AccurateRip database
     Copy OK
Track  5
     Filename C:\FLAC Rips\Lupe Fiasco - Lasers(2011) - FLAC\05-Out Of My Head (Feat. Trey Songz).wav
     Peak level 98.8 %
     Extraction speed 1.7 X
     Track quality 100.0 %
     Test CRC 8C7295B7
     Copy CRC 8C7295B7
     Track not present in AccurateRip database
     Copy OK
Track  6
     Filename C:\FLAC Rips\Lupe Fiasco - Lasers(2011) - FLAC\06-The Show Goes On.wav
     Peak level 98.8 %
     Extraction speed 1.8 X
     Track quality 100.0 %
     Test CRC FC3D6E68
     Copy CRC FC3D6E68
     Track not present in AccurateRip database
     Copy OK
Track  7
     Filename C:\FLAC Rips\Lupe Fiasco - Lasers(2011) - FLAC\07-Beautiful Lasers (2ways) (Feat.MDMA).wav
     Peak level 98.8 %
     Extraction speed 1.7 X
     Track quality 100.0 %
     Test CRC 0A59DF46
     Copy CRC 0A59DF46
     Track not present in AccurateRip database
     Copy OK
Track  8
     Filename C:\FLAC Rips\Lupe Fiasco - Lasers(2011) - FLAC\08-Coming Up (Feat.MDMA).wav
     Peak level 98.8 %
     Extraction speed 1.7 X
     Track quality 100.0 %
     Test CRC AB554817
     Copy CRC AB554817
     Track not present in AccurateRip database
     Copy OK
Track  9
     Filename C:\FLAC Rips\Lupe Fiasco - Lasers(2011) - FLAC\09-State Run Radio (Feat.Matt Mahaffey).wav
     Peak level 99.9 %
     Extraction speed 1.7 X
     Track quality 100.0 %
     Test CRC 42A22B65
     Copy CRC 42A22B65
     Track not present in AccurateRip database
     Copy OK
Track 10
     Filename C:\FLAC Rips\Lupe Fiasco - Lasers(2011) - FLAC\10-Break The Chain (Feat.Eric Turner & Sway).wav
     Peak level 98.8 %
     Extraction speed 1.4 X
     Track quality 99.9 %
     Test CRC E36AFD6D
     Copy CRC E36AFD6D
     Track not present in AccurateRip database
     Copy OK
Track 11
     Filename C:\FLAC Rips\Lupe Fiasco - Lasers(2011) - FLAC\11-All Black Everything.wav
     Peak level 98.8 %
     Extraction speed 1.7 X
     Track quality 100.0 %
     Test CRC ABEDA0DE
     Copy CRC ABEDA0DE
     Track not present in AccurateRip database
     Copy OK
Track 12
     Filename C:\FLAC Rips\Lupe Fiasco - Lasers(2011) - FLAC\12-Never Forget You (Feat. John Legend).wav
     Peak level 98.8 %
     Extraction speed 1.7 X
     Track quality 100.0 %
     Test CRC 73D945E8
     Copy CRC 73D945E8
     Track not present in AccurateRip database
     Copy OK
None of the tracks are present in the AccurateRip database
No errors occurred
End of status report
==== Log checksum 792F78FD74ACEB15944E5A6F713CCFD8ADCA88B1CA1FD35F6519591D303898F1 ====

Содержание индексной карты (.cue)

REM GENRE Hip-Hop
REM DATE 2011
REM DISCID AD0B340C
REM COMMENT "ExactAudioCopy v1.0b1"
TITLE "Lasers"
PERFORMER "Lupe Fiasco"
FILE "01-Letting Go (Feat. Sarah Green).wav" WAVE
  TRACK 01 AUDIO
    TITLE "Letting Go (Feat. Sarah Green)"
    PERFORMER "Lupe Fiasco"
    INDEX 01 00:00:00
FILE "02-Words I Never Said (Feat. Skylar Grey).wav" WAVE
  TRACK 02 AUDI
    TITLE "Words I Never Said (Feat. Skylar Grey)"
    PERFORMER "Lupe Fiasco"
    INDEX 01 00:00:00
FILE "03-Till I Get There.wav" WAVE
  TRACK 03 AUDIO
    TITLE "Till I Get There"
    PERFORMER "Lupe Fiasco"
    INDEX 01 00:00:00
FILE "04-I Don't Wanna Care Right Now (Feat. MDMA).wav" WAVE
  TRACK 04 AUDIO
    TITLE "I Don't Wanna Care Right Now (Feat. MDMA)"
    PERFORMER "Lupe Fiasco"
    INDEX 01 00:00:00
FILE "05-Out Of My Head (Feat. Trey Songz).wav" WAVE
  TRACK 05 AUDIO
    TITLE "Out Of My Head (Feat. Trey Songz)"
    PERFORMER "Lupe Fiasco"
    INDEX 01 00:00:00
FILE "06-The Show Goes On.wav" WAVE
  TRACK 06 AUDIO
    TITLE "The Show Goes On"
    PERFORMER "Lupe Fiasco"
    INDEX 01 00:00:00
FILE "07-Beautiful Lasers (2ways) (Feat.MDMA).wav" WAVE
  TRACK 07 AUDIO
    TITLE "Beautiful Lasers (2ways) (Feat.MDMA)"
    PERFORMER "Lupe Fiasco"
    INDEX 01 00:00:00
FILE "08-Coming Up (Feat.MDMA).wav" WAVE
  TRACK 08 AUDIO
    TITLE "Coming Up (Feat.MDMA)"
    PERFORMER "Lupe Fiasco"
    INDEX 01 00:00:00
FILE "09-State Run Radio (Feat.Matt Mahaffey).wav" WAVE
  TRACK 09 AUDIO
    TITLE "State Run Radio (Feat.Matt Mahaffey)"
    PERFORMER "Lupe Fiasco"
    INDEX 01 00:00:00
FILE "10-Break The Chain (Feat.Eric Turner & Sway).wav" WAVE
  TRACK 10 AUDIO
    TITLE "Break The Chain (Feat.Eric Turner & Sway)"
    PERFORMER "Lupe Fiasco"
    INDEX 01 00:00:00
FILE "11-All Black Everything.wav" WAVE
  TRACK 11 AUDIO
    TITLE "All Black Everything"
    PERFORMER "Lupe Fiasco"
    INDEX 01 00:00:00
FILE "12-Never Forget You (Feat. John Legend).wav" WAVE
  TRACK 12 AUDIO
    TITLE "Never Forget You (Feat. John Legend)"
    PERFORMER "Lupe Fiasco"
    INDEX 01 00:00:00
[Профиль] [ЛС]
Показать сообщения:    
Ответить на тему

Текущее время: 25-Июн 10:27

Часовой пояс: UTC + 3



Вы не можете начинать темы
Вы не можете отвечать на сообщения
Вы не можете редактировать свои сообщения
Вы не можете удалять свои сообщения
Вы не можете голосовать в опросах
Вы не можете прикреплять файлы к сообщениям
Вы не можете скачивать файлы