(Rap / Hip-Hop / Live) Каста и Ансамбль Ростовской Консерватории - Большой концерт - 2011, APE (image + .cue), lossless

Ответить на тему
 
Автор Сообщение

Three7 ®

Пол: Мужской

Стаж: 11 года

Сообщений: 464

Откуда: Тула

Создавать темы 25-Июл-2011 23:36

[Цитировать]

Каста и Ансамбль Ростовской Консерватории - Большой концерт- Жанр: Rap / Hip-Hop / Live
Страна-производитель диска: Россия
Год издания диска: 2011
Издатель (лейбл): Respect Production
Номер по каталогу: RPCD-049
Страна: Россия
Аудиокодек: APE (*.ape)
Тип рипа: image+.cue
Битрейт аудио: lossless
Продолжительность: 01:19:56

Трэклист:
1. Начало
2. Наши люди
3. В супермаркете
4. Ды-ды-дым
5. Куда надо смотреть
6. Юго-Восточная Европа
7. Встреча
8. Вокруг шум
9. Кореша
10. Номерок
11. Нормально всё
12. Ревность
13. На крыльях любви (feat. Noize MC)
14. Песня для радио (Из окна) (feat. Noize MC)
15. На порядок выше
16. Радиосигналы
17. Сестра
18. Гончая
19. Горячее время
20. Какой-то Вася
21. Песенка Винни-Пуха

Лог создания рипа

Exact Audio Copy V0.99 prebeta 5 from 4. May 2009
Отчёт EAC об извлечении, выполненном 17. июля 2011, 14:03
Каста / Большой концерт
Дисковод: MATSHITADVD-RAM UJ-850S   Adapter: 3  ID: 0
Режим чтения                 : Достоверность
Использование точного потока : Да
Отключение кэша аудио        : Да
Использование указателей C2  : Нет
Коррекция смещения при чтении                     : 102
Способность читать области Lead-in и Lead-out     : Нет
Заполнение пропущенных сэмплов тишиной            : Да
Удаление блоков с тишиной в начале и конце        : Нет
При вычислениях CRC использовались нулевые сэмплы : Да
Интерфейс                                         : Встроенный Win32-интерфейс для Win NT/2000
Выходной формат : Внутренние WAV-операции
Формат сэмплов  : 44.100 Гц; 16 бит; стерео
TOC извлечённого CD
     Трек |   Старт  | Длительность | Начальный сектор | Конечный сектор
    ---------------------------------------------------------------------
       1  |  0:00.00 |    2:08.18   |           0      |       9617
       2  |  2:08.18 |    3:45.19   |        9618      |      26511
       3  |  5:53.37 |    4:32.24   |       26512      |      46935
       4  | 10:25.61 |    4:52.02   |       46936      |      68837
       5  | 15:17.63 |    4:22.11   |       68838      |      88498
       6  | 19:39.74 |    4:36.20   |       88499      |     109218
       7  | 24:16.19 |    3:32.36   |      109219      |     125154
       8  | 27:48.55 |    4:21.10   |      125155      |     144739
       9  | 32:09.65 |    4:36.22   |      144740      |     165461
      10  | 36:46.12 |    3:35.17   |      165462      |     181603
      11  | 40:21.29 |    3:44.68   |      181604      |     198471
      12  | 44:06.22 |    3:49.02   |      198472      |     215648
      13  | 47:55.24 |    3:35.56   |      215649      |     231829
      14  | 51:31.05 |    2:19.14   |      231830      |     242268
      15  | 53:50.19 |    4:05.31   |      242269      |     260674
      16  | 57:55.50 |    5:07.07   |      260675      |     283706
      17  | 63:02.57 |    3:58.48   |      283707      |     301604
      18  | 67:01.30 |    3:42.45   |      301605      |     318299
      19  | 70:44.00 |    3:57.65   |      318300      |     336139
      20  | 74:41.65 |    2:21.40   |      336140      |     346754
      21  | 77:03.30 |    2:52.45   |      346755      |     359699
Характеристики диапазона извлечения и сообщения об ошибках
Выбранный диапазон
     Имя файла D:\Мои файлы\Музыка\Lossess\Каста - Большой концерт (2011)\Каста - Большой концерт.wav
     Пиковый уровень 100.0 %
     Качество диапазона 99.9 %
     CRC теста 7C50EA19
     CRC копии 7C50EA19
     Копирование... OK
Ошибок не произошло
AccurateRip: сводка
Трек  1  нет в базе данных
Трек  2  нет в базе данных
Трек  3  нет в базе данных
Трек  4  нет в базе данных
Трек  5  нет в базе данных
Трек  6  нет в базе данных
Трек  7  нет в базе данных
Трек  8  нет в базе данных
Трек  9  нет в базе данных
Трек 10  нет в базе данных
Трек 11  нет в базе данных
Трек 12  нет в базе данных
Трек 13  нет в базе данных
Трек 14  нет в базе данных
Трек 15  нет в базе данных
Трек 16  нет в базе данных
Трек 17  нет в базе данных
Трек 18  нет в базе данных
Трек 19  нет в базе данных
Трек 20  нет в базе данных
Трек 21  нет в базе данных
Ни одного трека нет в базе AccurateRip
Конец отчёта
[Профиль] [ЛС]
Показать сообщения:    
Ответить на тему

Текущее время: 15-Сен 23:31

Часовой пояс: UTC + 3



Вы не можете начинать темы
Вы не можете отвечать на сообщения
Вы не можете редактировать свои сообщения
Вы не можете удалять свои сообщения
Вы не можете голосовать в опросах
Вы не можете прикреплять файлы к сообщениям
Вы не можете скачивать файлы