(Alternative Rock) Daughtry (Chris Daughtry) - Дискография (2006-2009), FLAC (tracks+.cue), lossless

Ответить на тему
 
Автор Сообщение

Three7 ®

Пол: Мужской

Стаж: 13 года

Сообщений: 423

Откуда: Тула

Создавать темы 07-Июл-2010 09:34

[Цитировать]

Daughtry (Chris Daughtry) - Дискография- -Страна: USA ^ Жанр: Alternative Rock ^ Формат: FLAC (tracks+.cue) ^ Битрейт аудио: lossless-Известная американская команда, играющая музыку в стиле рок. Она была образована в Северной Калифорнии американским музыкантом Крисом Доутри. Основанием команды считается 2006 год. Дебютный альбом был выпущен 21 ноября 2006 года. В течение двух недель их альбом достиг небывалой популярности. Было продано около 4 миллионов копий. Альбом стал «номером один» по количеству продаж. Их альбом стал самым продаваемым среди дебютных альбомов рок-групп. Их сингл «It’s Not Over», стал наиболее транслируемой неформатной песней по американскому радио в 2007 году. А песня «Home» стала десятой самой транслируемой песней в Соединенных Штатах в 2007 году.-

2006 - Daughtry

Год выпуска: 2006
Продолжительность: 00:51:01
Трэклист:
01. It's Not Over
02. Used To
03. Home
04. Over You
05. Crashed
06. Feels Like Tonight
07. What I Want (Feat. Slash)
08. Breakdown
09. Gone
10. There & Back Again
11. All These Lives
12. What About Now
Wal-Mart Edition:
13. "Home" (Acoustic)
14. "Crashed" (Acoustic)

log XLD

X Lossless Decoder version 20090320 (105.1)
XLD extraction logfile from 2009-05-14 15:02:13 -0400
Chris Daughtry / Daughtry
Used drive : MATSHITA DVD-R UJ-867 (revision HA13)
Use cdparanoia mode : YES (CDParanoia III 10.2 engine)
Disable audio cache : OK for the drive with cache less than 2750KB
Make use of C2 pointers : NO
Read offset correction : 102
Max retry count : 100
TOC of the extracted CD
Track | Start | Length | Start sector | End sector
---------------------------------------------------------
1 | 00:00:00 | 03:35:02 | 0 | 16126
2 | 03:35:02 | 03:32:20 | 16127 | 32046
3 | 07:07:22 | 04:15:50 | 32047 | 51221
4 | 11:22:72 | 03:27:31 | 51222 | 66777
5 | 14:50:28 | 03:31:56 | 66778 | 82658
6 | 18:22:09 | 04:01:42 | 82659 | 100775
7 | 22:23:51 | 02:48:40 | 100776 | 113415
8 | 25:12:16 | 04:01:42 | 113416 | 131532
9 | 29:13:58 | 03:21:47 | 131533 | 146654
10 | 32:35:30 | 03:15:62 | 146655 | 161341
11 | 35:51:17 | 03:24:28 | 161342 | 176669
12 | 39:15:45 | 04:13:22 | 176670 | 195666
13 | 43:28:67 | 04:14:73 | 195667 | 214789
14 | 47:43:65 | 03:17:35 | 214790 | 229599
Track 01
Filename : /Users/davorin/XLD/01 Chris Daughtry - It's Not Over.flac
CRC32 hash (test run) : 7B7033F1
CRC32 hash : 7B7033F1
CRC32 hash (skip zero) : E26BC554
AccurateRip signature : 17D1D238
->Accurately ripped! (confidence 6)
Statistics
Read error : 0
Skipped (treated as error) : 0
Edge jitter error (maybe fixed) : 0
Atom jitter error (maybe fixed) : 0
Drift error (maybe fixed) : 0
Dropped bytes error (maybe fixed) : 0
Duplicated bytes error (maybe fixed) : 0
Inconsistency in error sectors : 0
Track 02
Filename : /Users/davorin/XLD/02 Chris Daughtry - Used To.flac
CRC32 hash (test run) : 5CF96226
CRC32 hash : 5CF96226
CRC32 hash (skip zero) : 9F841D59
AccurateRip signature : BAE13F17
->Accurately ripped! (confidence 6)
Statistics
Read error : 0
Skipped (treated as error) : 0
Edge jitter error (maybe fixed) : 0
Atom jitter error (maybe fixed) : 0
Drift error (maybe fixed) : 0
Dropped bytes error (maybe fixed) : 0
Duplicated bytes error (maybe fixed) : 0
Inconsistency in error sectors : 0
Track 03
Filename : /Users/davorin/XLD/03 Chris Daughtry - Home.flac
CRC32 hash (test run) : 8FB6DDDB
CRC32 hash : 8FB6DDDB
CRC32 hash (skip zero) : AA88C82B
AccurateRip signature : 5F2D6544
->Accurately ripped! (confidence 6)
Statistics
Read error : 0
Skipped (treated as error) : 0
Edge jitter error (maybe fixed) : 0
Atom jitter error (maybe fixed) : 0
Drift error (maybe fixed) : 0
Dropped bytes error (maybe fixed) : 0
Duplicated bytes error (maybe fixed) : 0
Inconsistency in error sectors : 0
Track 04
Filename : /Users/davorin/XLD/04 Chris Daughtry - Over You.flac
CRC32 hash (test run) : 5AE7F7BC
CRC32 hash : 5AE7F7BC
CRC32 hash (skip zero) : F85DC351
AccurateRip signature : A5A96BD6
->Accurately ripped! (confidence 6)
Statistics
Read error : 0
Skipped (treated as error) : 0
Edge jitter error (maybe fixed) : 0
Atom jitter error (maybe fixed) : 0
Drift error (maybe fixed) : 0
Dropped bytes error (maybe fixed) : 0
Duplicated bytes error (maybe fixed) : 0
Inconsistency in error sectors : 0
Track 05
Filename : /Users/davorin/XLD/05 Chris Daughtry - Crashed.flac
CRC32 hash (test run) : 07E5C25F
CRC32 hash : 07E5C25F
CRC32 hash (skip zero) : A809BA8B
AccurateRip signature : 1E841E69
->Accurately ripped! (confidence 6)
Statistics
Read error : 0
Skipped (treated as error) : 0
Edge jitter error (maybe fixed) : 0
Atom jitter error (maybe fixed) : 0
Drift error (maybe fixed) : 0
Dropped bytes error (maybe fixed) : 0
Duplicated bytes error (maybe fixed) : 0
Inconsistency in error sectors : 0
Track 06
Filename : /Users/davorin/XLD/06 Chris Daughtry - Feels Like Tonight.flac
CRC32 hash (test run) : 05968ED6
CRC32 hash : 05968ED6
CRC32 hash (skip zero) : 34CDBA0D
AccurateRip signature : 629D264D
->Accurately ripped! (confidence 6)
Statistics
Read error : 0
Skipped (treated as error) : 0
Edge jitter error (maybe fixed) : 0
Atom jitter error (maybe fixed) : 0
Drift error (maybe fixed) : 0
Dropped bytes error (maybe fixed) : 0
Duplicated bytes error (maybe fixed) : 0
Inconsistency in error sectors : 0
Track 07
Filename : /Users/davorin/XLD/07 Chris Daughtry - What I Want (Featuring Slash).flac
CRC32 hash (test run) : 772EE7F3
CRC32 hash : 772EE7F3
CRC32 hash (skip zero) : FE1B61D0
AccurateRip signature : 34010E27
->Accurately ripped! (confidence 6)
Statistics
Read error : 0
Skipped (treated as error) : 0
Edge jitter error (maybe fixed) : 0
Atom jitter error (maybe fixed) : 0
Drift error (maybe fixed) : 0
Dropped bytes error (maybe fixed) : 0
Duplicated bytes error (maybe fixed) : 0
Inconsistency in error sectors : 0
Track 08
Filename : /Users/davorin/XLD/08 Chris Daughtry - Breakdown.flac
CRC32 hash (test run) : 69C589FC
CRC32 hash : 69C589FC
CRC32 hash (skip zero) : 3FE1A8CC
AccurateRip signature : BB56F24B
->Accurately ripped! (confidence 6)
Statistics
Read error : 0
Skipped (treated as error) : 0
Edge jitter error (maybe fixed) : 0
Atom jitter error (maybe fixed) : 0
Drift error (maybe fixed) : 0
Dropped bytes error (maybe fixed) : 0
Duplicated bytes error (maybe fixed) : 0
Inconsistency in error sectors : 0
Track 09
Filename : /Users/davorin/XLD/09 Chris Daughtry - Gone.flac
CRC32 hash (test run) : CE84ACDA
CRC32 hash : CE84ACDA
CRC32 hash (skip zero) : 0C18CF34
AccurateRip signature : 3D4FB517
->Accurately ripped! (confidence 6)
Statistics
Read error : 0
Skipped (treated as error) : 0
Edge jitter error (maybe fixed) : 0
Atom jitter error (maybe fixed) : 0
Drift error (maybe fixed) : 0
Dropped bytes error (maybe fixed) : 0
Duplicated bytes error (maybe fixed) : 0
Inconsistency in error sectors : 0
Track 10
Filename : /Users/davorin/XLD/10 Chris Daughtry - There and Back Again.flac
CRC32 hash (test run) : A9404E61
CRC32 hash : A9404E61
CRC32 hash (skip zero) : DD82D451
AccurateRip signature : 7A1AF697
->Accurately ripped! (confidence 6)
Statistics
Read error : 0
Skipped (treated as error) : 0
Edge jitter error (maybe fixed) : 0
Atom jitter error (maybe fixed) : 0
Drift error (maybe fixed) : 0
Dropped bytes error (maybe fixed) : 0
Duplicated bytes error (maybe fixed) : 0
Inconsistency in error sectors : 0
Track 11
Filename : /Users/davorin/XLD/11 Chris Daughtry - All These Lives.flac
CRC32 hash (test run) : 325D4D7C
CRC32 hash : 325D4D7C
CRC32 hash (skip zero) : 0C66C219
AccurateRip signature : 13DA584C
->Accurately ripped! (confidence 6)
Statistics
Read error : 0
Skipped (treated as error) : 0
Edge jitter error (maybe fixed) : 0
Atom jitter error (maybe fixed) : 0
Drift error (maybe fixed) : 0
Dropped bytes error (maybe fixed) : 0
Duplicated bytes error (maybe fixed) : 0
Inconsistency in error sectors : 0
Track 12
Filename : /Users/davorin/XLD/12 Chris Daughtry - What About Now.flac
CRC32 hash (test run) : FB2CB294
CRC32 hash : FB2CB294
CRC32 hash (skip zero) : 51908263
AccurateRip signature : 419E67E3
->Accurately ripped! (confidence 6)
Statistics
Read error : 0
Skipped (treated as error) : 0
Edge jitter error (maybe fixed) : 0
Atom jitter error (maybe fixed) : 0
Drift error (maybe fixed) : 0
Dropped bytes error (maybe fixed) : 0
Duplicated bytes error (maybe fixed) : 0
Inconsistency in error sectors : 0
Track 13
Filename : /Users/davorin/XLD/13 Chris Daughtry - Bonus Track 1 : Home (Acoustic).flac
CRC32 hash (test run) : 1046761A
CRC32 hash : 1046761A
CRC32 hash (skip zero) : 15DE9EF8
AccurateRip signature : ED9629F6
->Accurately ripped! (confidence 7)
Statistics
Read error : 0
Skipped (treated as error) : 0
Edge jitter error (maybe fixed) : 0
Atom jitter error (maybe fixed) : 0
Drift error (maybe fixed) : 0
Dropped bytes error (maybe fixed) : 0
Duplicated bytes error (maybe fixed) : 0
Inconsistency in error sectors : 0
Track 14
Filename : /Users/davorin/XLD/14 Chris Daughtry - Bonus Track 2 : Crashed (Acoustic).flac
CRC32 hash (test run) : 22F755FB
CRC32 hash : 22F755FB
CRC32 hash (skip zero) : E29871D3
AccurateRip signature : B87B3703
->Accurately ripped! (confidence 7)
Statistics
Read error : 0
Skipped (treated as error) : 0
Edge jitter error (maybe fixed) : 0
Atom jitter error (maybe fixed) : 0
Drift error (maybe fixed) : 0
Dropped bytes error (maybe fixed) : 0
Duplicated bytes error (maybe fixed) : 0
Inconsistency in error sectors : 0
No errors occurred
End of status report

2009 - Leave This Town

Год выпуска: 2009
Продолжительность: 00:46:54
Трэклист:
01. You Don’t Belong
02. No Surprise
03. Every Time You Turn Around
04. Life After You
05. What I Meant to Say
06. Open Up Your Eyes
07. September
08. Ghost of Me
09. Learn My Lesson
10. Supernatural
11. Tennessee Line
12. Call Your Name

log EAC

Exact Audio Copy V0.99 prebeta 5 from 4. May 2009
EAC extraction logfile from 14. July 2009, 21:18
Daughtry / Leave This Town
Used drive : HL-DT-STDVDRAM GH20LS15 Adapter: 3 ID: 1
Read mode : Secure
Utilize accurate stream : Yes
Defeat audio cache : Yes
Make use of C2 pointers : No
Read offset correction : 667
Overread into Lead-In and Lead-Out : No
Fill up missing offset samples with silence : Yes
Delete leading and trailing silent blocks : No
Null samples used in CRC calculations : Yes
Used interface : Native Win32 interface for Win NT & 2000
Gap handling : Appended to previous track
Used output format : User Defined Encoder
Selected bitrate : 768 kBit/s
Quality : High
Add ID3 tag : No
Command line compressor : C:\Program Files (x86)\FLAC\flac.exe
Additional command line options : -V -8 -T "artist=%a" -T "title=%t" -T "album=%g" -T "date=%y" -T "tracknumber=%n" -T "genre=%m" %s
TOC of the extracted CD
Track | Start | Length | Start sector | End sector
---------------------------------------------------------
1 | 0:00.00 | 3:59.73 | 0 | 17997
2 | 3:59.73 | 4:29.52 | 17998 | 38224
3 | 8:29.50 | 3:39.03 | 38225 | 54652
4 | 12:08.53 | 3:26.31 | 54653 | 70133
5 | 15:35.09 | 3:09.69 | 70134 | 84377
6 | 18:45.03 | 4:19.15 | 84378 | 103817
7 | 23:04.18 | 4:00.16 | 103818 | 121833
8 | 27:04.34 | 3:39.45 | 121834 | 138303
9 | 30:44.04 | 3:50.48 | 138304 | 155601
10 | 34:34.52 | 3:39.02 | 155602 | 172028
11 | 38:13.54 | 4:37.00 | 172029 | 192803
12 | 42:50.54 | 4:02.74 | 192804 | 211027
Track 1
Filename C:\EAC Rips\Daughtry - -Leave This Town\01 - You Don't Belong.wav
Pre-gap length 0:00:02.00
Peak level 100.0 %
Track quality 100.0 %
Test CRC FC5D54BD
Copy CRC FC5D54BD
Track not present in AccurateRip database
Copy OK
Track 2
Filename C:\EAC Rips\Daughtry - -Leave This Town\02 - No Suprise.wav
Peak level 100.0 %
Track quality 100.0 %
Test CRC 6C48C265
Copy CRC 6C48C265
Track not present in AccurateRip database
Copy OK
Track 3
Filename C:\EAC Rips\Daughtry - -Leave This Town\03 - Everytime You Turn Around.wav
Peak level 100.0 %
Track quality 100.0 %
Test CRC 081BB696
Copy CRC 081BB696
Track not present in AccurateRip database
Copy OK
Track 4
Filename C:\EAC Rips\Daughtry - -Leave This Town\04 - Life After You.wav
Peak level 100.0 %
Track quality 100.0 %
Test CRC A83D26F9
Copy CRC A83D26F9
Track not present in AccurateRip database
Copy OK
Track 5
Filename C:\EAC Rips\Daughtry - -Leave This Town\05 - What I Meant to Say.wav
Peak level 100.0 %
Track quality 99.9 %
Test CRC E70139D5
Copy CRC E70139D5
Track not present in AccurateRip database
Copy OK
Track 6
Filename C:\EAC Rips\Daughtry - -Leave This Town\06 - Open Up Your Eyes.wav
Peak level 100.0 %
Track quality 100.0 %
Test CRC 87738A21
Copy CRC 87738A21
Track not present in AccurateRip database
Copy OK
Track 7
Filename C:\EAC Rips\Daughtry - -Leave This Town\07 - September.wav
Peak level 100.0 %
Track quality 100.0 %
Test CRC 45337402
Copy CRC 45337402
Track not present in AccurateRip database
Copy OK
Track 8
Filename C:\EAC Rips\Daughtry - -Leave This Town\08 - Ghost of Me.wav
Peak level 100.0 %
Track quality 100.0 %
Test CRC 5A7C9FD9
Copy CRC 5A7C9FD9
Track not present in AccurateRip database
Copy OK
Track 9
Filename C:\EAC Rips\Daughtry - -Leave This Town\09 - Learn My Lesson.wav
Pre-gap length 0:00:01.16
Peak level 100.0 %
Track quality 100.0 %
Test CRC 019A82AA
Copy CRC 019A82AA
Track not present in AccurateRip database
Copy OK
Track 10
Filename C:\EAC Rips\Daughtry - -Leave This Town\10 - Supernatural.wav
Peak level 100.0 %
Track quality 100.0 %
Test CRC B1C18105
Copy CRC B1C18105
Track not present in AccurateRip database
Copy OK
Track 11
Filename C:\EAC Rips\Daughtry - -Leave This Town\11 - Tennessee Line.wav
Pre-gap length 0:00:01.05
Peak level 100.0 %
Track quality 100.0 %
Test CRC 2DBA84BB
Copy CRC 2DBA84BB
Track not present in AccurateRip database
Copy OK
Track 12
Filename C:\EAC Rips\Daughtry - -Leave This Town\12 - Call Your Name.wav
Peak level 100.0 %
Track quality 100.0 %
Test CRC 2840D48E
Copy CRC 2840D48E
Track not present in AccurateRip database
Copy OK
None of the tracks are present in the AccurateRip database
No errors occurred
End of status report
[Профиль] [ЛС]

GomelPlesy

Пол: Не указан

Стаж: 15 дня

Сообщений: 1

Создавать темы 06-Июн-2021 23:58 (спустя 10 года)

[Цитировать]

Топовая плитка
плитка keraben
[Профиль] [ЛС]

RicklPlesy

Пол: Не указан

Стаж: 15 дня

Сообщений: 2

Создавать темы 07-Июн-2021 10:47 (спустя 10 часа)

[Цитировать]

Плитка с 14 стран, в том числе и
плитка gresan
[Профиль] [ЛС]

enbenhornpick1987Kn

Пол: Мужской

Стаж: 15 дня

Сообщений: 2

Откуда: USA

Создавать темы 07-Июн-2021 14:06 (спустя 3 часа)

[Цитировать]

Купить игру Chivalry 2 Xbox ONE https://rent4.today/Chivalry-2-Xbox-ONE
[Профиль] [ЛС]

enbenhornpick1987Kn

Пол: Мужской

Стаж: 15 дня

Сообщений: 2

Откуда: USA

Создавать темы 08-Июн-2021 14:22 (спустя 1 день)

[Цитировать]

Buy gameNINJA GAIDEN: Master Collection https://rent4.today/NINJA-GAIDEN-Master-Collection-Xbox-ONE
[Профиль] [ЛС]

Williamalals

Пол: Мужской

Стаж: 3 месяца 13 дня

Сообщений: 4

Откуда: Россия

Создавать темы 09-Июн-2021 09:29 (спустя 19 часа)

[Цитировать]

Предназначен для работы в составе мультисплит-системы Kentatsu. Каждый блок KMKE20HZAN1 может обслуживать помещение площадью до 20 квадратных метров. Несколько (от 2 до 5 в зависимости от наружного блока) внутренних блоков могут работать только в одном тепловом режиме – охлаждения или нагрева, но в каждом помещении можно задавать и поддерживать индивидуальные параметры воздуха. DC-инверторное управление двигателем компрессора позволяет достичь высокой энергоэффективности и обеспечивает индивидуальный комфорт в каждом обслуживаемом помещении.
https://www.bestsplit.ru/bytovye Предназначен для работы в составе мультисплит-системы Kentatsu. Каждый блок KMGBA25HZAN1 может обслуживать помещение площадью до 25 квадратных метров. Несколько (от 2 до 5 в зависимости от наружного блока) внутренних блоков могут работать только в одном тепловом режиме – охлаждения или нагрева, но в каждом помещении можно задавать и поддерживать индивидуальные параметры воздуха. DC-инверторное управление двигателем компрессора позволяет достичь высокой энергоэффективности и обеспечивает индивидуальный комфорт в каждом обслуживаемом помещении.
[Профиль] [ЛС]

WilliamNot

Пол: Мужской

Стаж: 12 дня

Сообщений: 1

Откуда: Latvia

Создавать темы 09-Июн-2021 20:08 (спустя 10 часа)

[Цитировать]

кредит под залог золота харьков https://mailer24.ru
[Профиль] [ЛС]
Показать сообщения:    
Ответить на тему

Текущее время: 22-Июн 17:32

Часовой пояс: UTC + 3



Вы не можете начинать темы
Вы не можете отвечать на сообщения
Вы не можете редактировать свои сообщения
Вы не можете удалять свои сообщения
Вы не можете голосовать в опросах
Вы не можете прикреплять файлы к сообщениям
Вы не можете скачивать файлы