(Мюзикл) Romeo & Juliette (Paris Cast) - 2000, FLAC (image + .cue), lossless

Ответить на тему
 
Автор Сообщение

Meril_Strayf ®

Пол: Женский

Стаж: 7 года 11 месяца

Сообщений: 12

Откуда: Богородицк

Создавать темы 26-Дек-2010 18:11

[Цитировать]

Romeo & Juliette (Paris Cast)
Страна: Франция
Жанр: Мюзикл
Год выпуска: 2000
Формат: FLAC (image + .cue)
Битрейт аудио: lossless
Продолжительность: 61:21
Трэклист:
01 - Verone
02 - La Haine
03 - J'ai Peur
04 - Les Rois Du Monde
05 - L'amour Heureux
06 - Le Balcon
07 - Les Beaux, Les Laids
08 - Par Amour
09 - Et Voila Qu'elle Aime
10 - Aimer
11 - On Dit Dans La Rue
12 - Le Duel
13 - Le Pouvoir
14 - Avoir Une Fille
15 - La Mort De Juliette
16 - J'sais Plus
17 - Coupables (Final)
Доп. информация:

Отчёт EAC

Exact Audio Copy V0.99 prebeta 4 from 23. January 2008
EAC extraction logfile from 22. September 2009, 12:09
Paris Cast / Romйo & Juliette (Paris Cast)
Used drive : Optiarc DVD RW AD-7203S Adapter: 2 ID: 1
Read mode : Secure
Utilize accurate stream : Yes
Defeat audio cache : Yes
Make use of C2 pointers : No
Read offset correction : 48
Overread into Lead-In and Lead-Out : No
Fill up missing offset samples with silence : Yes
Delete leading and trailing silent blocks : No
Null samples used in CRC calculations : Yes
Used interface : Installed external ASPI interface
Used output format : User Defined Encoder
Selected bitrate : 320 kBit/s
Quality : High
Add ID3 tag : No
Command line compressor : C:\Program Files\FLAC\flac.exe
Additional command line options : -8 -V -T "ARTIST=%a" -T "TITLE=%t" -T "ALBUM=%g" -T "DATE=%y" -T "TRACKNUMBER=%n" -T "GENRE=%m" -T "COMMENT=EAC FLAC -8" %s
TOC of the extracted CD
Track | Start | Length | Start sector | End sector
---------------------------------------------------------
1 | 0:00.00 | 3:40.09 | 0 | 16508
2 | 3:40.09 | 3:52.27 | 16509 | 33935
3 | 7:32.36 | 3:39.69 | 33936 | 50429
4 | 11:12.30 | 3:26.54 | 50430 | 65933
5 | 14:39.09 | 3:36.17 | 65934 | 82150
6 | 18:15.26 | 3:11.46 | 82151 | 96521
7 | 21:26.72 | 4:04.33 | 96522 | 114854
8 | 25:31.30 | 3:00.53 | 114855 | 128407
9 | 28:32.08 | 3:34.46 | 128408 | 144503
10 | 32:06.54 | 2:50.48 | 144504 | 157301
11 | 34:57.27 | 3:55.39 | 157302 | 174965
12 | 38:52.66 | 4:02.57 | 174966 | 193172
13 | 42:55.48 | 3:13.69 | 193173 | 207716
14 | 46:09.42 | 3:22.27 | 207717 | 222893
15 | 49:31.69 | 3:49.45 | 222894 | 240113
16 | 53:21.39 | 4:29.33 | 240114 | 260321
17 | 57:50.72 | 3:30.08 | 260322 | 276079
Range status and errors
Selected range
Filename Y:\Paris Cast - Romeo & Juliette (Paris Cast)\Paris Cast - Romeo & Juliette (Paris Cast).wav
Peak level 100.0 %
Range quality 100.0 %
Test CRC 5E2CD027
Copy CRC 5E2CD027
Copy OK
No errors occurred
AccurateRip summary
Track 1 accurately ripped (confidence 5) [89E340CB]
Track 2 accurately ripped (confidence 5) [509BADFA]
Track 3 accurately ripped (confidence 5) [1E1C6164]
Track 4 accurately ripped (confidence 5) [13FB9BD8]
Track 5 accurately ripped (confidence 5) [DFFA890F]
Track 6 accurately ripped (confidence 5) [5D45FF21]
Track 7 accurately ripped (confidence 5) [9099AE50]
Track 8 accurately ripped (confidence 5) [BCB9CEEF]
Track 9 accurately ripped (confidence 5) [804F3E52]
Track 10 accurately ripped (confidence 5) [901A8006]
Track 11 accurately ripped (confidence 5) [9FB9C100]
Track 12 accurately ripped (confidence 5) [5D32CC0E]
Track 13 accurately ripped (confidence 5) [FE86832F]
Track 14 accurately ripped (confidence 5) [F5188CCA]
Track 15 accurately ripped (confidence 5) [65F939D7]
Track 16 accurately ripped (confidence 5) [44AFFC63]
Track 17 accurately ripped (confidence 5) [13CA44BD]
All tracks accurately ripped
End of status report


Последний раз редактировалось: Meril_Strayf (2010-12-27 02:04), всего редактировалось 3 раз(а)
[Профиль] [ЛС]

Кот Да Винчи

Пол: Не указан

Стаж: 10 года

Сообщений: 592

Создавать темы 26-Дек-2010 20:46 (спустя 2 часа 34 минуты)

[Цитировать]

Это только одна треть от всего мюзикла.
[Профиль] [ЛС]
Показать сообщения:    
Ответить на тему

Текущее время: 13-Ноя 06:39

Часовой пояс: UTC + 3



Вы не можете начинать темы
Вы не можете отвечать на сообщения
Вы не можете редактировать свои сообщения
Вы не можете удалять свои сообщения
Вы не можете голосовать в опросах
Вы не можете прикреплять файлы к сообщениям
Вы не можете скачивать файлы